<?xml version="1.0" standalone="no"?>
<!DOCTYPE svg PUBLIC "-//W3C//DTD SVG 1.1//EN" "http://www.w3.org/Graphics/SVG/1.1/DTD/svg11.dtd" >
<svg xmlns="http://www.w3.org/2000/svg" xmlns:xlink="http://www.w3.org/1999/xlink" version="1.1">
<metadata>
Created by FontForge 20170812 at Mon Feb 21 13:05:55 2022
 By www-data
</metadata>
<defs>
<font id="DoctorSignatureRegular" horiz-adv-x="0" >
  <font-face 
    font-family="Doctor Signature"
    font-weight="400"
    font-stretch="normal"
    units-per-em="1000"
    panose-1="0 0 0 0 0 0 0 0 0 0"
    ascent="800"
    descent="-200"
    x-height="302.763"
    cap-height="738.373"
    bbox="-306.948 -431.835 1033.75 829.065"
    underline-thickness="50"
    underline-position="-100"
    unicode-range="U+000A-20AC"
  />
<missing-glyph horiz-adv-x="527" 
d="M50 700h427v-700h-427v700zM78 680l185 -309l186 309h-371zM251 350l-180 300v-601zM264 329l-185 -308h370zM276 350l181 -303v605z" />
    <glyph glyph-name=".notdef" horiz-adv-x="527" 
d="M50 700h427v-700h-427v700zM78 680l185 -309l186 309h-371zM251 350l-180 300v-601zM264 329l-185 -308h370zM276 350l181 -303v605z" />
    <glyph glyph-name=".null" 
 />
    <glyph glyph-name=".null" 
 />
    <glyph glyph-name="LF" unicode="&#xa;" 
 />
    <glyph glyph-name="controlCR" unicode="&#xd;" 
 />
    <glyph glyph-name="space" unicode=" " horiz-adv-x="374" 
 />
    <glyph glyph-name="exclam" unicode="!" horiz-adv-x="385" 
d="M322.899 664.028c3.19531 6.80469 15.0713 3.33594 11.6309 -4.31543c-93.5557 -207.904 -166.379 -426.433 -225.138 -646.505c-4.38672 -16.4365 -34.2598 -14.8613 -29.3555 3.2041c60.7207 223.678 144.438 438.088 242.862 647.616zM79.0518 -65.0371
c3.83496 3.38672 10.4531 3.3418 11.4834 -2.66602c1.93066 -11.2949 -4.83984 -23.4521 -8.2002 -34.1689c-3.95801 -12.6094 -7.67871 -25.2686 -12.0273 -37.7549c-3.64355 -10.4717 -22.9883 -10.6865 -19.9961 2.17969
c2.99219 12.8584 7.08789 25.2725 11.6553 37.6553c4.31055 11.6816 7.5332 26.3369 17.085 34.7549z" />
    <glyph glyph-name="quotedbl" unicode="&#x22;" horiz-adv-x="211" 
d="M78.7666 557.186c6.16895 10.4902 25.9238 4.42676 18.8242 -6.97949c-5.41016 -8.69336 -10.9043 -17.3252 -16.4365 -25.9385c-2.58594 -4.01953 -5.11133 -8.0957 -7.78223 -12.0615c-0.789062 -1.17578 -8.13379 -10.1562 -8.10742 -10.2402
c1.7207 -5.43652 -4.30273 -9.73145 -9.27246 -8.06445c-11.1533 3.72754 -3.99219 15.9844 -0.382812 22.7588c7.31055 13.7168 15.2803 27.1309 23.1572 40.5254zM143.544 565.751c6.07617 7.73145 22.1387 1.09277 16.0654 -8.45508
c-6.22949 -9.79297 -12.8613 -19.3027 -19.2363 -29.0039c-2.99219 -4.55176 -5.8584 -9.17676 -8.78906 -13.7627c-2.22559 -3.48242 -9.60059 -11.2334 -8.7959 -15.6777c1.06152 -5.85059 -7.31738 -8.45996 -11.3252 -5.91211
c-11.2793 7.17578 -0.677734 21.7998 4.00781 29.999c8.48633 14.8506 17.498 29.3525 28.0732 42.8125z" />
    <glyph glyph-name="quotedbl" unicode="&#x201d;" horiz-adv-x="211" 
d="M78.7666 557.186c6.16895 10.4902 25.9238 4.42676 18.8242 -6.97949c-5.41016 -8.69336 -10.9043 -17.3252 -16.4365 -25.9385c-2.58594 -4.01953 -5.11133 -8.0957 -7.78223 -12.0615c-0.789062 -1.17578 -8.13379 -10.1562 -8.10742 -10.2402
c1.7207 -5.43652 -4.30273 -9.73145 -9.27246 -8.06445c-11.1533 3.72754 -3.99219 15.9844 -0.382812 22.7588c7.31055 13.7168 15.2803 27.1309 23.1572 40.5254zM143.544 565.751c6.07617 7.73145 22.1387 1.09277 16.0654 -8.45508
c-6.22949 -9.79297 -12.8613 -19.3027 -19.2363 -29.0039c-2.99219 -4.55176 -5.8584 -9.17676 -8.78906 -13.7627c-2.22559 -3.48242 -9.60059 -11.2334 -8.7959 -15.6777c1.06152 -5.85059 -7.31738 -8.45996 -11.3252 -5.91211
c-11.2793 7.17578 -0.677734 21.7998 4.00781 29.999c8.48633 14.8506 17.498 29.3525 28.0732 42.8125z" />
    <glyph glyph-name="quotedbl" unicode="&#x201c;" horiz-adv-x="211" 
d="M78.7666 557.186c6.16895 10.4902 25.9238 4.42676 18.8242 -6.97949c-5.41016 -8.69336 -10.9043 -17.3252 -16.4365 -25.9385c-2.58594 -4.01953 -5.11133 -8.0957 -7.78223 -12.0615c-0.789062 -1.17578 -8.13379 -10.1562 -8.10742 -10.2402
c1.7207 -5.43652 -4.30273 -9.73145 -9.27246 -8.06445c-11.1533 3.72754 -3.99219 15.9844 -0.382812 22.7588c7.31055 13.7168 15.2803 27.1309 23.1572 40.5254zM143.544 565.751c6.07617 7.73145 22.1387 1.09277 16.0654 -8.45508
c-6.22949 -9.79297 -12.8613 -19.3027 -19.2363 -29.0039c-2.99219 -4.55176 -5.8584 -9.17676 -8.78906 -13.7627c-2.22559 -3.48242 -9.60059 -11.2334 -8.7959 -15.6777c1.06152 -5.85059 -7.31738 -8.45996 -11.3252 -5.91211
c-11.2793 7.17578 -0.677734 21.7998 4.00781 29.999c8.48633 14.8506 17.498 29.3525 28.0732 42.8125z" />
    <glyph glyph-name="numbersign" unicode="#" horiz-adv-x="584" 
d="M504.654 714.373c8 16.042 36.4824 7.81738 27.8047 -10.3086c-56.8965 -119.008 -103.065 -242.034 -141.219 -368.05c22.2412 2.87402 44.7197 3.3916 67.3135 0.303711c8.63184 -1.17578 5.14941 -12.8965 -2.66699 -11.9385
c-23.126 2.83496 -45.9346 2.06445 -68.4365 -1.06152c-4.29102 -14.3945 -8.50586 -28.8164 -12.5938 -43.2842c-2.11914 -7.50977 -4.19531 -15.0312 -6.25684 -22.5527c18.9238 4.19922 38.0996 7.14941 57.5674 8.24512
c8.78516 0.498047 9.12598 -11.6475 0.761719 -12.1113c-20.9619 -1.16895 -41.5791 -4.4834 -61.8936 -9.26074c-16.2256 -60.1533 -30.7773 -120.709 -44.8193 -181.418c-17.1113 -73.9805 -30.418 -149.299 -52.249 -222.062
c-1.7666 -5.88867 -14.1309 -8.06152 -13.5371 -0.149414c5 66.4482 18.4941 132.253 31.7627 197.472c13.375 65.751 28.2334 131.532 45.0645 196.889c-31.9043 -9.92383 -63.084 -22.6328 -93.6855 -35.4492c-6.25684 -2.62109 -12.4863 -5.31445 -18.709 -8.01953
c-38.7627 -124.169 -72.7744 -250.384 -92.5947 -378.894c-2.19531 -14.249 -25.9658 -12.7471 -24.502 2.6709c7.17285 75.5059 26.0078 149.988 44.8047 223.295c11.8271 46.1191 24.6582 91.9697 38.2334 137.598c-42.6436 -19.8086 -84.3672 -41.54 -125.091 -65.0996
c-6.51367 -3.7666 -13.8662 4.60547 -6.87793 8.67871c44.3027 25.8428 89.7666 49.6201 136.322 71.0918c6.3291 20.9766 12.7812 41.9111 19.459 62.7812c1.33301 4.16504 2.73926 8.30664 4.08398 12.4678c-39.873 -17.7852 -78.7041 -37.835 -116.355 -60.0146
c-6.36426 -3.75098 -13.5674 4.46387 -6.74316 8.51367c41.2529 24.4717 83.8965 46.4951 127.777 65.7744c43.54 132.946 93.8125 263.793 151.51 391.233c7.33301 16.1992 35.5557 7.91211 27.4941 -10.1953c-53.4062 -119.958 -101.812 -242.012 -143.928 -366.353
c4.92676 1.96191 9.84277 3.9541 14.7969 5.85059c29.1611 11.1611 59.2764 21.7783 89.9854 28.8438c38.4785 132.195 86.1797 261.674 147.417 384.513zM334.8 248.623c5.97363 22.8047 12.1865 45.5537 18.6729 68.2246
c-30.1455 -7.1875 -59.7197 -17.7432 -88.6895 -28.9268c-5.67773 -2.19531 -11.3174 -4.46777 -16.9531 -6.75488c-4.17285 -12.4785 -8.36426 -24.9463 -12.4062 -37.4707c-4.02637 -12.4639 -8 -24.9541 -11.9463 -37.4639
c3.31055 1.42871 6.60547 2.89258 9.92773 4.29492c33.0264 13.9658 66.7891 27.7324 101.395 38.0967z" />
    <glyph glyph-name="dollar" unicode="$" horiz-adv-x="537" 
d="M388.641 420.09c19.2188 39.4561 41.0977 78.5938 57.3545 119.367c3.65918 9.17578 10.1572 23.9268 8.84277 34.2676c-2.0498 16.126 -16.9268 11.0957 -27.6318 8.43262c-21.1338 -5.26074 -41.4326 -14.0537 -60.8154 -23.8701
c-12.5674 -6.36035 -24.9004 -13.2529 -37.0303 -20.5176c-0.165039 -0.428711 -0.333984 -0.861328 -0.495117 -1.29004c-39.2725 -104.199 -75.5215 -209.854 -106.886 -316.874c59.8965 -10.4326 124.379 -28.5859 157.498 -83.8506
c35.5215 -59.2607 5.42578 -117.59 -33.9229 -165.98c-38.2646 -47.0615 -88.9502 -86.3604 -146.966 -105.571c-19.4102 -6.42578 -40.6016 -9.8125 -60.7314 -8.41406c-8.375 -51.0918 -15.2598 -102.452 -20.4092 -154.088
c-1.17578 -11.8008 -21.8467 -10.7666 -20.4561 2.22949c5.54395 51.8232 12.7471 103.467 21.5674 154.835c-23.4521 5.80859 -43.9043 19.6973 -56.0801 45.0117c-24.9502 51.873 -8.00391 120.306 11.7734 170.911c12.1299 31.042 28.751 60.3105 49.1494 86.6709
c11.5674 14.9463 24.5908 28.793 40.6172 37.5742c-26.3066 4.06934 -52.1416 9.6709 -76.333 20.9043c-66.418 30.8311 -23.6943 106.835 6.86523 148.391c39.9004 54.2568 90.8809 101.858 144.295 142.582c27.8311 21.2188 57.8428 42.3379 89.4746 60.1621
c9.88867 25.709 19.8809 51.376 30.0537 76.9775c7.05762 17.7666 14.1768 35.5059 21.3496 53.2266c3.1377 7.75098 6.27148 15.4941 9.49023 23.2109c2.78125 6.6709 8.97266 15.5518 9.1875 22.6973c0.207031 6.9082 12.291 9.01562 12.2529 1.58301
c-0.0761719 -14.5439 -11.0801 -31.7969 -16.4824 -45.2109c-7.1416 -17.7275 -14.249 -35.4707 -21.2871 -53.2412c-9.21094 -23.2529 -18.2764 -46.5635 -27.2607 -69.9043c23.7432 12.1729 48.3145 22.2383 73.5176 28.8477
c23.0654 6.0459 55.3984 8.89648 64.9619 -19.1035c10.1611 -29.7471 -12.0576 -67.0615 -24.6396 -92.8281c-34.5479 -70.7236 -69.0693 -141.463 -104.039 -211.98c-7.78906 -15.7012 -35.6777 -7.62109 -27.1758 10.0801c20 41.6514 40.1572 83.2227 60.3906 124.763z
M134.692 -56.1934c17.5781 84.3408 39.1455 167.793 63.6396 250.391c-3.22266 0.424805 -6.44824 0.849609 -9.67383 1.27441c-40.1494 -7.36816 -67.5244 -54.8008 -85.0801 -87.8311c-18.6055 -35.0078 -31.1074 -73.1572 -36.6172 -112.43
c-4.7666 -33.9727 -4.41406 -75.1064 19.291 -102.547c9.57129 -11.0801 21.5137 -17.8154 34.5059 -21.4365c4.29102 24.2607 8.9082 48.46 13.9346 72.5791zM296.271 171.565c-26.1729 11.3105 -54.0566 16.4854 -82.2441 20.4854
c-30.3408 -106.67 -55.6738 -214.682 -74.1221 -323.961c18.2295 -1.12598 37.2637 2.36035 54.1338 7.97754c62.835 20.9199 115.341 69.3984 151.486 123.801c19.9844 30.0762 35.915 64.6123 23.0527 100.831c-11.7812 33.1758 -40.7852 57.2451 -72.3066 70.8662z
M249.395 353.736c19.835 57.9463 40.5215 115.591 62.0693 172.924c-16.0498 -10.3027 -31.7051 -21.2227 -46.916 -32.5479c-55.7549 -41.5137 -109.464 -91.3838 -149.609 -148.472c-16.1572 -22.9766 -50.7812 -74.1641 -17.2832 -96.5586
c16.4287 -10.9844 40.2637 -14.8467 59.1641 -18.5713c16.5596 -3.26074 33.2529 -5.72852 49.916 -8.38379c13.4639 44.1152 27.7246 87.9854 42.6592 131.609z" />
    <glyph glyph-name="percent" unicode="%" horiz-adv-x="837" 
d="M763.839 627.201c15.4365 10.4746 33.0244 -9.82812 16.8594 -21.2803c-61.2334 -43.3867 -120.605 -89.126 -177.341 -138.275c-101.755 -88.1494 -195.142 -185.751 -283.211 -287.46c-88 -101.62 -167.502 -209.616 -252.065 -313.957
c-6.33301 -7.91602 -23.1182 -0.96582 -16.6045 8.73926c42.4062 63.1797 89.333 123.612 136.057 183.632c165.341 212.383 352.425 416.689 576.306 568.602zM126.749 398.297c-27.8242 16.9307 -10.5264 50.5869 2.35449 71.583
c16.0615 26.165 36.7588 49.2725 60.9277 68.1992c32.7969 25.6816 100.203 66.4443 140.954 35.7129c42.3027 -31.9082 2.54004 -98.9736 -21.0312 -129.215c-17.4248 -22.3564 -39.5049 -41.582 -64.1289 -55.6201c-19.8662 -11.3252 -47.0576 -25.8232 -70.3682 -16.7578
c-56.0156 21.7891 -1.13867 110.03 23.1719 135.486c10.8428 11.3564 31.0879 -0.513672 20.0303 -14.2383c-17.0303 -21.1377 -33.4824 -46.3408 -38.333 -73.582c-2.55566 -14.3604 0.432617 -29.2344 18.7432 -26.9355c12.3291 1.55176 25.1758 8.3291 35.877 14.2793
c40.375 22.4404 78.6357 62.5479 90.5439 108.249c7.88867 30.2754 -7.0498 53.6162 -39.8701 49.291c-23.9619 -3.15723 -48.0693 -15.6396 -68.1426 -28.5166c-20.624 -13.2295 -39.249 -29.3867 -55.0762 -48.1035c-12.667 -14.9736 -52.8086 -63.2842 -26.667 -79.7783
c7.2793 -4.58984 -2.42578 -14.0459 -8.98535 -10.0537zM550.595 177.172c39.0801 19.2686 98.9717 24.5293 109.386 -30.3135c9.83496 -51.8467 -26.2529 -109.41 -56.793 -148.023c-21.7314 -27.4717 -89.7891 -91.7588 -122.325 -43.7852
c-13.0996 19.3184 -6.07324 46.3525 0.551758 66.5781c9.02637 27.5596 22.4092 52.4404 40.2178 75.2793c8.87402 11.3789 32.7861 1.1416 23.4678 -12.3525c-15.3867 -22.291 -28.375 -46.3789 -36.252 -72.375c-3.00781 -9.92383 -6.22266 -20.7324 -5.24902 -31.2041
c1.63574 -17.6133 16.3594 -16.1768 30.1221 -9.91211c42.1035 19.1611 75.0693 69.3301 92.5713 110.399c8.94238 20.9844 18.6934 50.0264 7.55176 72.0957c-12.6816 25.1152 -44.5664 18.5898 -65.4902 9.88867c-22.7705 -9.46777 -44.085 -23.418 -62.9619 -39.2031
c-15.8584 -13.2607 -52.8584 -42.5518 -49.291 -65.7852c1.41406 -9.21094 -14.6396 -13.3408 -17.793 -4.50586c-9.60156 26.9082 21.3945 54.5674 38.6934 71.3916c21.6436 21.0498 46.5205 38.4824 73.5938 51.8271z" />
    <glyph glyph-name="ampersand" unicode="&#x26;" horiz-adv-x="627" 
d="M459.772 452.488c24.1992 36.2529 48.4824 72.6182 68.3027 111.499c15.916 31.2256 48.2451 95.8311 -10.667 100.961c-35.4287 3.08398 -72.1562 -6.19531 -107.218 -20.8545c-7.25684 -21.4941 -14.3984 -43.0342 -21.2725 -64.6582
c-27.3447 -86.0078 -51.4785 -172.874 -72.417 -260.46c5.87695 3.77734 11.7773 7.5127 17.7197 11.1562c13.7129 8.40625 29.0996 -8.7168 14.7129 -18.5674c-8.01953 -5.49023 -16.2422 -10.6279 -24.5674 -15.582
c-5.25293 -3.44043 -10.4756 -6.91895 -15.6553 -10.4707c-23.0195 -100.402 -41.8203 -201.731 -56.4062 -303.808c28.3682 12.4219 55.1689 28.0195 78.5176 42.8359c62.7852 39.8389 119.678 89.8428 165.789 148.295c17.2031 21.8047 66.4746 84.4443 32.9033 109.992
c-28.3984 21.6133 -83.1914 -1.78125 -110.012 -15.624c-7.52148 -3.88086 -14.1572 7.46387 -6.70117 11.7285c32.5938 18.6475 85.6475 39.6094 122.51 20.6289c42.3105 -21.7852 16.249 -75.9111 -1.31445 -105.394
c-45.0117 -75.5518 -116.598 -139.069 -190.062 -186.169c-29.9844 -19.2295 -61.6621 -36.9424 -95.0029 -50.0186c-4.02637 -29.5479 -7.70801 -59.1572 -11.0303 -88.8242c-1.17578 -10.5137 -19.7432 -9.60547 -18.2607 1.99219
c3.41797 26.7891 7.19238 53.5244 11.1543 80.2373c-6.0918 -2.02637 -12.2334 -3.89648 -18.4365 -5.57422c-38.8428 -10.4902 -87.1416 -16.3906 -125.149 0.628906c-85.1152 38.1152 -2.55176 157.598 33.7705 201.671c31.3408 38.0264 66.8047 72.9492 104.954 104.639
c-4.7666 -1.41016 -9.54102 -2.80469 -14.3682 -4.0459c-36.8086 -9.46777 -83.2568 -16.6553 -114.713 10.4824c-28.0264 24.1758 -27.6738 65.3057 -19.0957 98.3213c10.7168 41.249 34.2764 77.9004 61.1426 110.46c53.9385 65.3789 121.562 120.598 195.493 161.862
c22.498 12.5596 45.6973 24.2529 69.6631 33.9121c4.27539 12.3867 8.58203 24.7549 12.9805 37.0957c9.20312 25.8125 17.7627 52.0918 32.4834 75.3906c3.77734 5.97656 15.3594 2.64355 11.1025 -4.11914c-18.54 -29.4365 -28.3711 -63.8545 -39.7158 -96.5059
c-0.724609 -2.08008 -1.40625 -4.17188 -2.12695 -6.25195c12.9268 4.64746 26.0566 8.70898 39.4668 11.8164c31.2793 7.24121 78.4902 15.4365 104.299 -9.9541c27.8047 -27.3525 9.36035 -70.1611 -4.26367 -99.6973
c-20.7432 -44.9619 -48.1338 -86.3984 -75.3525 -127.617c-8.12305 -12.2988 -32.3604 -5.19531 -23.1572 8.58984zM251.761 78.6582c11.9697 65.3643 25.4629 130.49 40.4746 195.268c-50.7129 -36.4521 -97.6055 -78.1377 -139.05 -124.973
c-30.3291 -34.2646 -128.857 -160.287 -44.1865 -185.479c40.54 -12.0615 84.0498 -4.64746 125.18 10.8506c5.37891 34.8545 11.2295 69.6357 17.582 104.333zM387.645 615.236c2.44824 7.41016 4.98047 14.791 7.47461 22.1855
c-29.7773 -13.8623 -58.0029 -30.9736 -82.7617 -46.8779c-58.7275 -37.7275 -112.355 -84.3867 -156.425 -138.62c-23.3223 -28.6973 -43.9082 -60.9229 -52.9658 -97.1641c-8.19922 -32.7969 -6.83105 -75.2529 31.3066 -87.3027
c31.9424 -10.0879 70.9043 2.53711 101.146 12.8281c22.6631 7.71289 44.376 17.498 65.165 29.0693c10.4326 43.2646 21.5557 86.3604 33.4443 129.227c16.4482 59.3027 34.3252 118.211 53.6162 176.655z" />
    <glyph glyph-name="quotesingle" unicode="'" horiz-adv-x="148" 
d="M77.4434 547.4c6.17578 10.4219 25.8809 4.71484 18.9268 -7.02051c-10.3027 -17.3945 -19.1729 -35.4707 -25.9541 -54.5322c-3.78125 -10.6357 -23.9463 -9.86133 -19.877 2.16504c7.00781 20.7051 15.7588 40.5635 26.9043 59.3877z" />
    <glyph glyph-name="quotesingle" unicode="&#x2019;" horiz-adv-x="148" 
d="M77.4434 547.4c6.17578 10.4219 25.8809 4.71484 18.9268 -7.02051c-10.3027 -17.3945 -19.1729 -35.4707 -25.9541 -54.5322c-3.78125 -10.6357 -23.9463 -9.86133 -19.877 2.16504c7.00781 20.7051 15.7588 40.5635 26.9043 59.3877z" />
    <glyph glyph-name="quotesingle" unicode="&#x2018;" horiz-adv-x="148" 
d="M77.4434 547.4c6.17578 10.4219 25.8809 4.71484 18.9268 -7.02051c-10.3027 -17.3945 -19.1729 -35.4707 -25.9541 -54.5322c-3.78125 -10.6357 -23.9463 -9.86133 -19.877 2.16504c7.00781 20.7051 15.7588 40.5635 26.9043 59.3877z" />
    <glyph glyph-name="parenleft" unicode="(" horiz-adv-x="578" 
d="M522.724 783.423c10.5176 -2.72754 3.24219 -18.4658 -6.04883 -16.416c-41.7393 9.20703 -87.7012 -28.249 -117.647 -53.4717c-31.8887 -26.8623 -59.6436 -58.498 -85.7197 -90.9082c-91.9922 -114.337 -159.815 -248.329 -198.999 -389.693
c-20.6816 -74.6133 -35.4941 -152.843 -36.3682 -230.437c-0.727539 -64.6895 7.35645 -178.195 92.9766 -184.402c18.6396 -1.35254 10.873 -26.376 -5.69434 -25.4756c-100.437 5.46777 -116.433 128.525 -115.153 206.276
c2.72461 165.275 57.2461 333.59 137.774 476.854c40.249 71.6055 88.3789 139.735 144.042 200.214c26.4824 28.7773 55.4785 55.8506 88.249 77.375c30.2295 19.8545 65.5088 39.6973 102.589 30.084z" />
    <glyph glyph-name="parenright" unicode=")" horiz-adv-x="452" 
d="M381.914 594.155c22.8584 -79.042 23.1885 -165.803 16.8018 -247.281c-6.00781 -76.6631 -20.5938 -152.755 -46.084 -225.387c-25.46 -72.5479 -60.7324 -141.444 -107.131 -202.881c-45.1611 -59.7969 -102.115 -115.341 -175.23 -138.042
c-19.0195 -5.9043 -29.1572 19.3408 -10.0039 26.0684c77.3184 27.1533 134.847 89.5283 180.241 155.548c81.9541 119.191 124.115 263.333 134.705 406.712c9.97363 134.977 6.14941 331.068 -146.072 386.995c-8.31836 3.05371 -1.33789 14.2871 6.07227 11.5859
c75.502 -27.5518 125.023 -98.3564 146.701 -173.318z" />
    <glyph glyph-name="asterisk" unicode="*" horiz-adv-x="367" 
d="M307.665 437.155c15.5977 -0.241211 9.12988 -21.6396 -4.77832 -21.4248c-31.8701 0.498047 -63.7549 0.980469 -95.6396 1.49414c22.2295 -27.2529 44.8965 -54.6592 64.291 -83.5518c7.9502 -11.8389 -10.333 -22.9121 -19.2568 -13.3027
c-19.1494 20.6211 -36.6133 43.5635 -53.5254 66.6592c-3.20312 -37.3252 -7.00391 -74.5781 -11.9922 -111.628c-1.6748 -12.4062 -26.043 -13.9463 -25.0928 -0.283203c2.61719 37.6436 6.59082 75.2295 11.2998 112.751
c-27.4482 -30.2031 -54.877 -60.4219 -82.3174 -90.6094c-8.84668 -9.73145 -26.4717 1.13867 -16.6475 11.832c33.6855 36.6709 67.7695 72.8164 102.172 108.64c-40.0381 0.697266 -80.0684 1.49414 -120.072 2.56348c-9.79688 0.260742 -6.60156 13.0615 1.15723 14.3682
c34.0537 5.74316 69.2334 4.83887 103.889 4.19531c-9.0498 12.5859 -18.0039 25.2256 -26.7051 38.0605c-11.6211 17.1416 -21.5254 38.5664 -36.8281 52.6357c-5.7666 5.30664 2.44824 13.6289 8.28711 9.28027c15.6279 -11.6475 27.6436 -30.0459 39.877 -45.0957
c11.9346 -14.6855 23.7393 -29.4629 35.5137 -44.2715c5.52148 38.5322 11.4873 76.9844 17.3184 115.333c0.973633 6.41016 13.5869 7.29102 13.0693 0.145508c-2.8623 -39.5938 -5.42188 -79.3174 -8.31055 -119.026c33.9199 34.9727 68.1426 69.6699 102.664 104.202
c5.08789 5.08789 14.7969 -0.586914 9.25684 -6.58301c-32.2988 -34.9697 -64.4404 -70.127 -96.5244 -105.334c29.6318 -0.283203 59.2637 -0.585938 88.8955 -1.0498z" />
    <glyph glyph-name="plus" unicode="+" horiz-adv-x="246" 
d="M191.026 380.88c9.04199 0.0654297 5.2998 -12.4443 -2.78418 -12.4678c-19.6436 -0.0654297 -39.2949 -0.25293 -58.9502 -0.378906c-9.12988 -47.8467 -18.0801 -95.7354 -26.8545 -143.647c-2.57812 -14.0879 -27.5244 -12.8047 -24.6162 2.68164
c8.83887 47.0693 18.1797 94.0234 28.0068 140.886c-17.0156 -0.0341797 -34.0273 0.00390625 -51.0312 0.322266c-7.31445 0.133789 -5.66309 11.084 0.908203 11.2793c17.5752 0.513672 35.165 0.743164 52.7549 0.888672
c0.980469 4.64746 1.94238 9.29883 2.93457 13.9424c6.08789 28.4521 12.3711 56.9268 19.375 85.1719c3.83105 15.4404 7.14551 30.0039 22.46 37.3525c5.98438 2.87012 11.5439 -4.29102 7.29102 -9.29883c-13.7207 -16.1533 -13.6973 -47.2451 -17.5098 -67.3291
c-3.77734 -19.8887 -7.54785 -39.7812 -11.333 -59.666c19.7891 0.0839844 39.5742 0.114258 59.3486 0.263672z" />
    <glyph glyph-name="comma" unicode="," horiz-adv-x="208" 
d="M136.34 51.0332c9.29883 11.2832 28.4609 -0.574219 18.4268 -13.0957c-27.9805 -34.9043 -55.9072 -70.1875 -85.5928 -103.659c-8.83887 -9.97363 -25.4102 0.225586 -16.7354 11.8926c26.667 35.8662 55.4795 70.376 83.9014 104.862z" />
    <glyph glyph-name="hyphen" unicode="-" horiz-adv-x="389" 
d="M326.126 288.922c16.8242 1.71289 17.3477 -21.4678 1.45898 -23.165c-88.793 -9.48633 -177.693 -18.3369 -266.666 -25.958c-14.1416 -1.21094 -14.5439 17.8047 -1.22559 19.4443c88.6816 10.9199 177.54 20.625 266.433 29.6787z" />
    <glyph glyph-name="period" unicode="." horiz-adv-x="139" 
d="M69.7617 5.66113c7.62402 10.54 25.2373 -0.326172 16.4707 -11.7051c-7.3291 -9.51758 -12.4131 -20.1152 -18.7158 -30.2529c-4.51367 -7.24902 -19.6436 -6.81641 -17.2646 4.04199c3.0459 13.9004 11.291 26.5518 19.5098 37.916z" />
    <glyph glyph-name="slash" unicode="/" horiz-adv-x="660" 
d="M583.053 646.205c12.3721 13.1689 35.4805 -0.522461 22.9668 -16.3232c-44.0762 -55.6895 -90.4707 -109.463 -133.965 -165.65c-76.3525 -98.6357 -147.896 -200.977 -214.518 -306.425c-66.3066 -104.958 -125.016 -213.988 -186.468 -321.758
c-6.32227 -11.0801 -25.8438 -5.93066 -19.9854 7.41406c28.5059 64.9619 62.2227 127.387 97.0312 189.164c61.375 108.912 129.022 214.398 201.106 316.514c72.2715 102.379 147.919 205.612 233.831 297.064z" />
    <glyph glyph-name="zero" unicode="0" horiz-adv-x="421" 
d="M324.401 483.278c41.2529 -36.4482 49.6582 -93.3213 45.2637 -145.482c-4.63184 -54.9805 -18.9883 -109.08 -39.7812 -160.088c-21.1689 -51.9307 -49.9355 -101.562 -85.6826 -144.854c-30.8125 -37.3223 -70.3301 -71.2725 -118.499 -82.6055
c-133.096 -31.3184 -38.1875 196.015 -17.624 244.903c43.3184 102.996 99.6904 200.146 160.062 294.065c-33.291 7.17578 -70.2109 -2.75879 -100.199 -18.9277c-39.7812 -21.4404 -82.8848 -52.9844 -97.3369 -97.6855
c-3.55566 -10.9922 -24.0195 -9.98828 -20.1113 2.19141c16.9658 52.877 66.0576 90.1836 113.831 114.559c34.7314 17.7207 77.3486 27.0615 115.188 17.4404c1.375 2.11914 2.74707 4.24512 4.12598 6.36035c9.81641 15.0303 39.3877 6.66602 28.3379 -10.5098
c-1.52832 -2.37207 -3.0498 -4.75098 -4.57422 -7.12598c5.92383 -3.42871 11.6133 -7.48242 17 -12.2412zM345.01 326.808c6.64355 48.958 3.98633 108.165 -36.7344 142.767c-3.84668 3.26465 -7.84668 6.12305 -11.9697 8.60547
c-55.0996 -86.3682 -108.188 -174.085 -150.632 -267.518c-20.8086 -45.8008 -40.4062 -93.1191 -53.3564 -141.816c-5.89258 -22.1729 -12.709 -47.7246 -8.97754 -70.8008c4.50586 -27.8926 28.8467 -27.3447 51.0879 -19.4678
c42.7666 15.1494 75.4873 49.8662 102.269 85.165c28.502 37.5596 51.9307 79.0312 70.0801 122.533c18.6895 44.793 31.7051 92.4287 38.2334 140.532z" />
    <glyph glyph-name="one" unicode="1" horiz-adv-x="391" 
d="M284.944 582.394c21.5557 5.45215 46.1826 1.83105 53.1865 -22.4482c8.41797 -29.1572 -3.47461 -67.3262 -11.1758 -95.3955c-19.7588 -72.0303 -44.8926 -142.789 -68.7432 -213.544c-33.3223 -98.8428 -64.9854 -198.295 -87.3604 -299.935
c18.9238 4.19531 37.832 8.56348 56.7559 13.2568c8.625 2.1377 11.0156 -11.0879 2.91211 -13.4023c-20.6973 -5.92676 -41.835 -11.4248 -63.1836 -16.333c-8.21875 -39.2256 -15.0391 -78.7852 -19.9355 -118.781c-2.26465 -18.4941 -34.3799 -16.793 -32.0156 3.48633
c4.2334 36.2832 10.3564 72.3174 17.8506 108.072c-25.5674 -5.01562 -51.2646 -9.10352 -76.7246 -11.8311c-8.62793 -0.923828 -8.48633 10.1455 -0.735352 11.6895c27.1338 5.40234 54.1143 10.8086 81.0303 16.4795c7.11133 32.0654 15.2305 63.916 24.1504 95.4902
c35.793 126.717 83.2412 249.812 126.417 374.1c10.7393 30.9199 21.8047 61.916 28.7168 93.9658c3.41406 15.8389 10.1416 37.1572 1.51367 51.9922c-10.3066 17.7314 -33.1992 8.11426 -48.6094 2.1377c-57.6357 -22.3408 -108.954 -57.3633 -151.594 -102.003
c-5.60547 -5.86621 -16.5215 0.765625 -10.3262 7.34082c46.6592 49.4941 110.705 98.6777 177.87 115.662z" />
    <glyph glyph-name="two" unicode="2" horiz-adv-x="492" 
d="M350.093 572.47c51.2793 4.09961 80.2734 -36.8896 88.0244 -82.8242c9.85059 -58.3789 -2.06152 -122.647 -18.8281 -178.609c-28.4678 -94.9961 -77.5137 -185.586 -136.219 -266.851c30.667 -3.26855 60.1455 -14.2031 85.0342 -34.3984
c6.72754 -5.45215 -2.93555 -15.0615 -9.06152 -10.1416c-25.123 20.1729 -54.6514 30.0811 -85.126 32.0352c-12.7393 -17.1338 -25.8584 -33.873 -39.3262 -50.084c-33.8389 -40.7393 -79.6934 -91.835 -132.755 -106.437
c-17.6016 -4.84277 -40.7812 -3.17188 -49.2949 15.8125c-9.09961 20.2871 8.29883 46.4824 19.7168 62.0957c32.126 43.9424 86.873 72.3984 138.636 85.5361c12.1299 3.07617 24.4941 5.06836 36.873 5.99902c3.65527 4.95801 7.27637 9.93457 10.8584 14.9268
c56.8662 79.1797 107.253 167.345 135.881 260.942c14.0342 45.8848 23.498 94.4785 22.5439 142.624c-0.804688 40.5098 -15.0039 93.8281 -65.7812 90.6748c-43.6279 -2.70898 -86.624 -37.6934 -115.999 -67.6279c-16.0303 -16.3369 -30.4023 -34.3252 -42.4785 -53.7812
c-3.51758 -5.66699 -38.8359 -64.8467 -21.3799 -67.3369c8.21094 -1.17578 6.80859 -12.957 -1.05371 -13.0908c-58.7627 -1.01172 16.207 105.608 30.1191 122.823c35.3105 43.6895 90.9883 93.0303 149.616 97.7119zM170.168 -46.2354
c24.4746 23.4287 46.4004 49.5781 66.96 76.6279c-14.3682 -1.93066 -28.6436 -5.43262 -42.4746 -10.291c-45.0801 -15.8271 -94.5781 -44.8506 -116.317 -89.3945c-4.4248 -9.06152 -12.7041 -27.1914 2.43359 -32.5742c2.4248 -0.862305 9.95312 1.05762 11.6699 1.49805
c9.52832 2.45215 18.2529 8.2793 26.4756 13.4941c18.46 11.6973 35.4795 25.5361 51.2529 40.6396z" />
    <glyph glyph-name="three" unicode="3" horiz-adv-x="466" 
d="M289.104 301.915c45.2949 1.03809 89.8008 -18.6748 111.552 -59.8584c43.9619 -83.2217 -14.3672 -189.762 -61.9951 -258.467c-25.2646 -36.4404 -54.8086 -69.5518 -88.1836 -98.751c-34.3604 -30.0654 -72.9619 -57.7051 -118.077 -68.3564
c-35.1758 -8.30664 -80.1836 -0.55957 -82.3027 43.5098c-2.00391 41.709 27.8428 83.5791 52.582 114.464c56.3525 70.3447 128.265 134.072 216.177 160.057c16.6016 4.9082 25.4902 -17.6396 8.68555 -22.624c-78.8506 -23.3867 -141.904 -78.126 -194.046 -139.988
c-23.2568 -27.5977 -48.4365 -60.2217 -54.502 -96.8535c-9.18359 -55.4639 59.4141 -33.6553 86.5938 -19.8125c64.6055 32.9082 119.494 93.1797 158.421 153.329c37.6094 58.1152 83.8584 142.878 54.9424 212.962c-14.6357 35.4717 -49.2988 54.4141 -86.7969 55.0576
c-15.3145 0.260742 -34.5752 -2.29492 -52.9697 -7.98438c-19.624 -15.5059 -40.0146 -30.042 -61.1025 -43.46c-9.80469 -6.2373 -27.4482 1.22266 -20.1152 14.3564c13.9961 25.0693 41.249 41.9277 70.6357 51.748c24.6016 19.5215 47.9238 40.6328 69.7471 63.4258
c20.8125 21.7354 40.8428 44.7275 57.5439 69.8154c14.8662 22.333 30.6592 50.0684 28.8779 77.873c-4.92383 76.8887 -129.571 16.168 -164.004 -2.2002c-23.9463 -12.7744 -47.5322 -26.5713 -68.9883 -43.2646c-11.5215 -8.96973 -71.4912 -57.1309 -48.8896 -75.4873
c6.26074 -5.08398 -2.70898 -14.0039 -8.44434 -9.45215c-40.291 31.958 50.5977 96.4443 72.5742 110.946c46.2373 30.498 100.295 60.624 155.805 68.2637c22.4141 3.08789 49.1914 3.2373 66.2793 -14.042c13.8242 -13.9766 16.4453 -34.1221 14.1582 -52.8994
c-6.80859 -55.9385 -51.1191 -106.084 -87.9199 -145.655c-12.0459 -12.9502 -24.6777 -25.3408 -37.7197 -37.2793c3.91211 0.325195 7.75488 0.543945 11.4824 0.62793z" />
    <glyph glyph-name="four" unicode="4" horiz-adv-x="600" 
d="M531.625 583.114c4.35645 10.6318 22.1426 5.25488 17.6602 -6.55762c-36.0498 -94.9727 -68.3945 -191.317 -97.2148 -288.716c21.9658 0.631836 44.3799 -3.62109 48.3564 -25.1494c1.44824 -7.8584 -12.4756 -10.1152 -14.0234 -1.8125
c-2.30273 12.3643 -18.0879 15.8545 -37.8887 15.084c-9.87402 -33.7314 -19.3184 -67.5898 -28.3379 -101.56c-35.8662 -135.092 -61.958 -271.728 -85.5254 -409.405c-3.06152 -17.8662 -33.9004 -16.2607 -31.0918 3.39062
c24.333 170.172 64.2373 339.172 115.861 504.218c-25.9307 -4.50586 -51.3447 -12.1113 -59.624 -14.7549c-24.9238 -7.96191 -49.0117 -18.2646 -72.3145 -30.1309c-31.3066 -59.7051 -67.6631 -117.418 -112.33 -166.314
c-16.2568 -17.793 -33.9463 -34.9766 -54.3184 -48.0381c-13.5781 -8.70508 -31.042 -19.291 -47.9189 -17.7275c-46.9199 4.34473 -9.28418 63.916 3.21777 81.8467c45.7666 65.6211 116.388 114.759 187.223 152.215c18.7588 33.5098 35.9883 67.8965 52.0723 102.475
c17.0693 36.6934 33.0693 74.0498 45.8008 112.49c6.31445 19.0654 11.9355 38.4219 16.4492 57.9932c2.12305 9.20312 3.89355 18.46 5.56445 27.7549c0.44043 2.44824 7.88477 40.0615 -3.42188 35.5137c-7.44434 -3 -11.2412 7.18359 -3.96582 10.3252
c42.5479 18.3789 17.1611 -82.498 13.9736 -96.1035c-13.0303 -55.6094 -34.9961 -109.418 -58.3789 -161.384c-10.7666 -23.9238 -22.1035 -48.0693 -34.1729 -72.0156c38.0879 17.8545 78.3213 31.5518 120.072 37.3945c1.8125 0.256836 3.82422 0.547852 5.9541 0.854492
c32.0195 101.104 68.418 200.689 108.322 298.114zM201.331 131.404c17.5137 24.418 33.7959 49.8262 49.1104 75.8564c-0.739258 -0.44043 -1.49414 -0.865234 -2.2334 -1.30566c-60.291 -36.0801 -121.532 -79.2061 -160.046 -139.268
c-4.91602 -7.66699 -9.64746 -15.7324 -13.4639 -24.0117c-1.94238 -4.20312 -5.71973 -9.80469 -4.68164 -14.6357c-1.84277 -4.53223 0.203125 -6.76953 6.1416 -6.7002c2.20703 -0.896484 4.41016 -1.79688 6.61719 -2.68945
c13.8125 0.988281 33.1533 19.1875 43.3145 27.7656c28.8623 24.3721 53.2988 54.3984 75.2412 84.9883z" />
    <glyph glyph-name="five" unicode="5" horiz-adv-x="488" 
d="M400.829 295.007c39.4941 -30.0762 42.8887 -82.917 31.9189 -127.729c-12.0156 -49.0303 -34.0889 -96.8691 -59.625 -140.198c-24.1875 -41.042 -53.1611 -79.3984 -86.3027 -113.632c-32.7705 -33.8428 -71.0889 -69.126 -117.346 -82.7119
c-42.6895 -12.54 -80.2637 8.39062 -76.8193 55.5244c3.48633 47.7207 31.498 94.8047 57.2451 133.777c25.9736 39.3184 56.6943 75.2305 93.1191 105.257c31.3223 25.8203 78.6211 63.4443 121.518 52.1074c16.7432 -4.42188 2.86621 -26.6904 -11.9346 -22.7744
c-22.5215 5.96582 -52.7861 -17.793 -70.3877 -30.0039c-18.1992 -12.624 -35.1191 -26.9346 -50.7432 -42.624c-30.9082 -31.0381 -56.832 -66.6436 -78.2959 -104.77c-10.8584 -19.2832 -21 -39.2832 -27.5635 -60.4785
c-4.97363 -16.0615 -12.9434 -42.0576 -0.966797 -56.9961c26.9766 -33.6553 94.0303 22.873 114.781 41.4941c60.6357 54.4248 109.05 122.248 141.851 196.754c16.9346 38.4639 36.0498 83.9883 29.8701 126.827c-6.70898 46.5176 -44.5898 67.6631 -88.5244 69.46
c-45.1455 1.85059 -89.2529 -12.9229 -129.877 -31.2676c-35.835 -16.1836 -70.5166 -42.126 -110.387 -46.5977c-7.74707 -0.866211 -14.291 4.66211 -13.0225 12.6621c4.49414 28.3682 25.9385 55.4297 39.9922 80.0117c14.8428 25.9658 29.8193 51.8584 44.9268 77.6709
c16.2529 27.7773 32.4756 55.6162 49.0391 83.252c-44.0342 -15.9346 -142.942 -53.502 -139 -62.0303c3.25293 -7.04199 -9.11133 -11.6279 -12.5215 -4.80762c-6.14941 12.3027 4.91992 19.9004 14.6406 25.4785c16.5137 9.47461 33.8926 17.7002 51.1299 25.7461
c32.6816 15.2412 66.3252 28.5137 100.524 40.0039c10.7773 17.6318 21.7236 35.1562 32.9805 52.4707c4.59766 7.07617 18.498 3.20605 13.3447 -4.94727c-7.27246 -13.2949 -14.6592 -26.5244 -22.0996 -39.7236c38.207 11.8164 77.123 21.4482 116.441 28.7314
c20.2373 3.75098 69.0605 9.45215 59.1221 -27.2793c-3.66699 -13.5635 -28.4297 -11.8965 -24.0391 2.625c3.6748 12.165 -43.6201 2.17676 -47.291 1.50977c-13.498 -2.45605 -26.9463 -5.1875 -40.333 -8.19531c-26.0195 -5.84668 -51.7588 -12.8467 -77.2031 -20.8125
c-17.5215 -30.7852 -35.1846 -61.4941 -52.3916 -92.4521c-14.4785 -26.0459 -28.8232 -52.165 -43.0381 -78.3604c-10.6475 -19.6211 -27.2568 -42.4756 -35.3682 -65.0771c23.8086 7.34473 45.6709 22.0156 67.7705 32.8584
c26.4443 12.9805 53.6777 24.5088 82.1562 32.2363c47.7734 12.958 110.536 19.1338 152.709 -12.9893z" />
    <glyph glyph-name="six" unicode="6" horiz-adv-x="488" 
d="M423.45 597.099c9.62109 6.36426 20.4414 -6.01758 10.4492 -13.1826c-69.7168 -49.9883 -122.334 -125.188 -172.123 -194c-46.5361 -64.3223 -88.835 -131.954 -124.367 -202.992c-13.9619 -27.9121 -26.8428 -56.4902 -36.873 -86.0576
c33.5674 13.5283 68.5518 24.2139 104.578 23.9648c42.7236 -0.302734 68.8535 -27.8125 60.1064 -70.9502c-7.7168 -38.0576 -32.7129 -74.3262 -60.9961 -100.115c-25.7354 -23.4717 -65.2949 -52.3105 -102.475 -42.7324
c-40.0225 10.3066 -50.0801 54.6172 -48.1064 90.4873c1.30664 23.7129 5.33301 47.0156 11.2793 69.8545c-1.92676 -0.866211 -3.85059 -1.72852 -5.77051 -2.59082c-8.56348 -3.84277 -13.1074 8.29883 -4.64355 12.0957c4.94629 2.22266 9.94238 4.46387 14.9658 6.69727
c4.98047 16.5137 10.8848 32.7705 17.4209 48.7549c36.3828 88.9502 88.7656 171.812 144.896 249.479c28.2646 39.1113 58.0732 77.1152 89.1924 113.996c30.5098 36.1611 62.7891 71.0381 102.467 97.291zM177.424 109.521
c-28.4219 -4.17285 -55.5566 -13.7314 -82.0244 -24.8193c-0.908203 -3.03809 -1.83496 -6.06836 -2.67383 -9.12988c-9.55566 -34.9502 -20.5098 -80.5596 -7.52539 -115.824c17.5557 -47.6738 68.9775 -24.7578 98.2383 -2.50098
c28.4141 21.6133 52.3262 53.0381 63.6943 87.0645c6.62402 19.8311 9.45508 46.7773 -10.8018 59.8535c-16.6777 10.7588 -40.3555 8.08105 -58.9072 5.35645z" />
    <glyph glyph-name="seven" unicode="7" horiz-adv-x="439" 
d="M301.87 602.616c26.5859 5.9541 59.4912 7.77637 76.5254 -17.8633c17.0801 -25.7207 9.1416 -60.9775 1.43262 -88.4678c-20.7012 -73.8086 -59.1797 -143.843 -93.8193 -211.827c-15.1113 -29.6553 -30.4639 -59.1572 -45.7666 -88.6592
c24.8389 5.74316 49.5781 11.8848 74.2139 18.3828c13.0342 3.44043 15.8584 -12.6436 3.42188 -15.7549c-28.7129 -7.17969 -57.5439 -13.6934 -86.4746 -19.6816c-55.2412 -106.739 -109.038 -213.861 -147.214 -328.535
c-6.00391 -18.0342 -39.7432 -16.8232 -33.4023 3.64062c23.3604 75.4141 55.7207 148.031 90.874 218.609c16.5215 33.165 33.7939 65.9658 51.3223 98.6396c-25.4678 -4.82715 -51.0195 -9.24512 -76.6631 -13.2949c-9.25293 -1.45996 -9.38672 11.2715 -0.804688 12.75
c28.8203 4.96973 57.5371 10.5752 86.1504 16.6904c46.4287 86.084 94.1377 171.548 134.303 260.709c13.8662 30.7812 30.8359 67.3135 30.5176 101.838c-0.432617 46.9346 -45.957 40.8086 -78.4092 31.8467c-61.54 -16.9961 -118.682 -54.4707 -158.195 -104.72
c-5.16113 -6.56348 -16.0771 0.233398 -10.5059 7.4668c45.9463 59.6475 108.605 101.671 182.494 118.23z" />
    <glyph glyph-name="eight" unicode="8" horiz-adv-x="529" 
d="M342.257 515.459c38.2529 20.165 121.334 50.8018 135.464 -14.5928c6.15332 -28.4824 -5.01953 -59.4404 -14.7861 -85.793c-13.6895 -36.9541 -30.7354 -72.7354 -46.6094 -108.785c-30.6709 -69.6553 -60.8818 -139.544 -92.1572 -208.935
c31.3682 -17.8428 52.4834 -46.3145 40.8975 -89.46c-16.0459 -59.7588 -66.3027 -113.984 -121.46 -140.321c-24.1992 -11.5518 -55.0801 -16.4102 -78.6973 -0.579102c-23.1377 15.5137 -26.8008 43.5176 -24.0381 69.1768
c6.34473 58.9082 31.9346 117.889 65.1182 166.858c-34.0918 2.9082 -68.3604 4.6709 -101.739 12.7324c-142.518 34.4141 35.291 235.916 84.0225 284.161c45.4678 45.0156 97.2725 85.6367 153.985 115.537zM271.013 -91.543
c44.2451 34.8662 115.232 127.483 43.0869 169.648c-2.62793 1.53613 -5.3291 2.92676 -8.06055 4.26367c-2.48242 0.428711 -4.80078 1.47461 -6.62793 3.01074c-22.1836 9.375 -47.0957 13.2061 -71.2988 15.6465
c-0.0498047 -0.0732422 -0.0996094 -0.138672 -0.149414 -0.211914c-20.624 -30.0537 -37.4707 -63.1074 -49.21 -97.6289c-10.0732 -29.6211 -25.9893 -73.5674 -12.6748 -104.153c19.835 -45.5674 79.6621 -10.4912 104.935 9.4248zM411.353 356.92
c17.1533 38.6279 42.8242 83.5811 42.0312 126.956c-0.984375 53.4717 -64.1221 29.1611 -92.5205 15.2305c-63.0576 -30.9268 -120.548 -78.1641 -168.659 -128.865c-24.3564 -25.6709 -46.8008 -53.1924 -66.9199 -82.3115
c-19.9697 -28.9004 -41.292 -61.7393 -48.3301 -96.6895c-4.11914 -20.4404 -0.583008 -39.7812 20.21 -48.8652c16.1299 -7.0459 35.042 -9.20703 52.3828 -11.4258c23.8389 -3.05371 47.8848 -4.36426 71.8047 -6.69727c16.0615 20.8047 34.0078 39.9883 53.9502 57.2217
c5.36816 4.63574 42.3027 31.8193 41.3682 6.25586c-0.264648 -7.18359 -10.1885 -10.1074 -13.6484 -4.8584c-9.93066 -3.2373 -34.4365 -32.2031 -38.7119 -36.8047c-7.2793 -7.83887 -14.2373 -15.9922 -20.8848 -24.3828
c6.41406 -0.870117 12.8203 -1.82812 19.1953 -3.02734c12.7627 -2.39844 25.8965 -5.86621 38.3867 -10.5635c36.1035 83.2295 73.5254 165.911 110.346 248.827z" />
    <glyph glyph-name="nine" unicode="9" horiz-adv-x="562" 
d="M414.984 495.382c24.7012 13.8242 59.6621 26.9678 81.3213 0.921875c19.7393 -23.7432 16.7012 -61.4639 14.6631 -89.916c-2.9541 -41.2607 -11.9199 -81.6895 -24.2803 -121.104c-23.793 -75.8662 -57.1221 -149.085 -97.5322 -217.503
c-39.1035 -66.207 -84.9736 -133.578 -142.993 -184.7c-24.375 -21.4717 -54.4707 -44.4219 -86.7314 -52.0195c-30.4824 -7.17578 -55.4131 8.72852 -57.1299 40.8818c-1.9082 35.6895 12.9121 71.7471 28.9385 102.812c17.0576 33.0693 37.249 64.6631 59.1914 94.6895
c44.3945 60.7471 98.0918 114.13 158.383 159.068c13.375 9.96973 29.1182 -8.4707 15.0107 -18.9424c-68.6592 -50.9697 -128.464 -113.705 -175.1 -185.464c-23.2871 -35.835 -47.3711 -75.2295 -56.4746 -117.444c-4.05371 -18.7812 -8.73926 -57.5977 21.832 -50.8506
c19.3145 4.26074 37.9424 17.5254 53.6816 29.0732c62.5176 45.8506 109.583 115.245 149.905 180.371c41.9463 67.7471 77.1299 140.275 102.409 215.896c13.1611 39.3721 23.502 80.0273 27.4062 121.445c3.11914 33.0918 8.65137 103.613 -45.1494 84.1152
c-39.0234 -14.1455 -71.832 -48.8848 -101.456 -76.5322c-29.249 -27.2988 -57.6318 -55.5137 -86.4824 -83.2305c-28.5479 -27.4219 -57.54 -54.5059 -88.1758 -79.5977c-22.7627 -18.6436 -53.2646 -41.9658 -84.5371 -40.7012
c-74.3828 3.01562 3.23828 122.28 20.3916 146.185c39.0615 54.4365 86.9316 105.329 145.774 138.524c36.0576 20.3408 140.349 67.5518 157.506 1.10352c0.25293 -0.976562 0.279297 -1.91895 0.145508 -2.7959c3.12988 1.95801 6.25977 3.9082 9.48242 5.71289z
M324.129 422.085c22.709 21.2109 45.8115 43.3896 71.6162 61.1602c-1.83496 0.421875 -3.46289 1.61328 -4.36719 3.85449c-19 47.1377 -99.6016 7.2832 -129.211 -9.16113c-35.5938 -19.7627 -66.9268 -46.3867 -94.5479 -76.1416
c-28.498 -30.7012 -55.1377 -64.9844 -75.4707 -101.674c-8.65527 -15.624 -26.8242 -47.6475 -17.8164 -66.0459c10.5742 -21.6016 52.9463 8.50586 64.9463 17.4102c67.1719 49.8506 123.889 113.659 184.851 170.598z" />
    <glyph glyph-name="colon" unicode=":" horiz-adv-x="205" 
d="M133.557 437.818c7.44043 9.89648 27.2949 1.49512 20.0615 -10.5586c-10.1074 -16.8242 -20.2188 -33.4717 -28.6406 -51.2305c-6.2334 -13.1455 -29.3828 -6.38672 -22.5205 8.35254c8.73145 18.7471 18.6514 36.8848 31.0996 53.4365zM84.6143 78.1992
c5.38281 -2.1377 9.30664 -9.31543 5.63574 -14.6797c-5.45215 -7.96191 -10.1074 -16.4678 -13.0654 -25.6904c-2.80469 -8.73145 -3.31055 -17.9883 -6.77051 -26.4482c-2.88086 -7.0459 -16.1914 -8.25293 -18.709 -0.318359
c-6.15332 19.4248 5.51758 44.8535 16.2305 60.7344c3.61719 5.35645 10.1074 9.01172 16.6787 6.40234z" />
    <glyph glyph-name="semicolon" unicode=";" horiz-adv-x="275" 
d="M206.104 435.167c6.44434 8.47168 23.3076 1.38672 17.2383 -9.06934c-9.87012 -17.0117 -19.8779 -34.8242 -31.3994 -50.7549c-4.45996 -6.16504 -18.249 -2.94238 -15.5518 5.7666c5.96582 19.2529 17.5752 38.1035 29.7129 54.0576zM131.963 107.289
c7.96191 12.5137 32.2109 5.26074 23.1572 -8.58594c-29.4521 -45.0498 -56.5635 -91.8701 -87.3066 -136.05c-3.15332 -9.84668 -22.2607 -6.05371 -16.8545 5.52051c22.6357 48.4678 52.3447 94.0615 81.0039 139.115z" />
    <glyph glyph-name="less" unicode="&#x3c;" horiz-adv-x="322" 
d="M260.626 208.952c19.5898 -2.05762 11.5166 -28.2744 -6.00781 -26.8564c-47.54 3.83105 -95.1758 8.54395 -142.325 15.8125c-23.0381 3.55176 -68.0918 13.2725 -61.6777 46.1768c3.03027 15.5635 18.4482 25.1611 30.5244 33.2451
c18.2188 12.1992 36.8242 23.8242 55.7822 34.8438c17.8203 10.3564 35.9775 20.0693 54.46 29.1924c5.91992 2.91992 62.1846 24.874 61.5596 28.8506c-1.12598 7.22266 11.0654 8.93945 12.6094 1.62891c2.07324 -9.79688 -6.68555 -13.8389 -14.126 -18.2031
c-15.7393 -9.22949 -32.0645 -17.5205 -47.9307 -26.5439c-31.9268 -18.1611 -63.1562 -37.6709 -93.1904 -58.8203c-7.0498 -4.96582 -16.4678 -9.90039 -22.3604 -16.1992c-9.31836 -9.9541 -9.52539 -15.0918 3.34082 -21.2871
c15.2949 -7.36035 35.9424 -7.37598 52.4902 -9.47168c38.8701 -4.92383 77.8936 -8.27637 116.852 -12.3682z" />
    <glyph glyph-name="equal" unicode="=" horiz-adv-x="517" 
d="M70.7539 304.301c-15.1377 -2.10352 -15.3945 18.6016 -1.31445 20.8271c128.088 20.2607 257.283 31.0615 386.961 32.207c15.582 0.137695 12.2031 -23.9658 -1.94238 -24.1611c-128.383 -1.75879 -256.521 -11.1836 -383.704 -28.873zM448.715 288.695
c18.7168 0.904297 19.4727 -24.9561 1.62988 -25.8184c-66.1572 -3.19531 -131.978 -9.93848 -197.36 -20.5557c-65.3721 -10.6133 -128.912 -27.4404 -193.349 -42.2568c-10.958 -2.52148 -13.1309 13 -3.60254 16.5713c61.4824 23.042 127.363 37.2676 191.812 49.0947
c66.3369 12.1797 133.506 19.708 200.87 22.9648z" />
    <glyph glyph-name="greater" unicode="&#x3e;" horiz-adv-x="394" 
d="M343.167 251.382c6.41797 -43.3408 -73.4385 -62.9795 -102.209 -73.1328c-56.0498 -19.7812 -113.012 -36.8926 -170.1 -53.375c-19.5176 -5.63574 -30.0654 20.5977 -10.2344 26.6553c47.3604 14.4717 94.9082 28.3955 141.966 43.832
c22.7432 7.45996 45.5557 14.9424 67.9346 23.4482c10.2568 3.89648 20.6318 8.03027 30.0107 13.793c11.7314 7.20703 15.8965 15.4219 6.1377 27.0576c-14.4785 17.2686 -35.6777 29.123 -54.4707 41.0889c-19.3184 12.3027 -38.9893 24.0498 -58.9316 35.3105
c-39.2227 22.1494 -84.6709 38.6738 -119.805 67.1982c-11.4326 9.2793 4.88574 25.4941 15.4141 17.2529c22.1875 -17.375 48.6162 -27.9648 73.6006 -40.6084c24.6211 -12.46 48.9736 -25.4717 72.8896 -39.2344c24.126 -13.8848 48.6436 -28.0186 71.1113 -44.5049
c14.4443 -10.5938 33.873 -25.7734 36.6855 -44.7812z" />
    <glyph glyph-name="question" unicode="?" horiz-adv-x="500" 
d="M404.104 712.737c83.1758 -42.084 32.4795 -154.065 1.87012 -214.165c-45.1416 -88.6279 -102.835 -170.953 -153.114 -256.712c-51.2686 -87.4482 -99.1074 -176.835 -141.49 -268.946c-8.11523 -17.6396 -38.9043 -8.61621 -30.0303 11.1348
c39.1035 87.0342 84.8701 170.839 133.43 252.923c42.0879 71.1338 87.1914 140.329 130.51 210.693c21.9268 35.624 42.4863 72.1484 58.9541 110.654c14.1836 33.1689 32.0605 78.0273 13.9111 113.069c-34.9424 67.46 -140.452 29.1729 -185.847 -3.40137
c-27.9121 -20.0303 -51.2803 -46.3867 -67.4219 -76.7354c-15.6855 -29.4941 -40.6123 -94.502 6.41797 -108.924c10.5098 -3.22559 1.69727 -16.8613 -7.48633 -14.2871c-45.8203 12.8428 -40.7627 66.3174 -27.8359 101.62
c13.8887 37.9307 37.835 71.6201 68.3291 98.0264c50.6816 43.8887 134.961 77.8584 199.804 45.0498zM74.0869 -92.3818c5.10742 3.34082 15.7607 -0.930664 11.083 -7.90723c-7.1875 -10.7246 -12.915 -21.1387 -16.248 -33.6904
c-2.80469 -10.5635 -20.2568 -9.98828 -18.8389 2.05371c1.82715 15.54 10.8428 30.9424 24.0039 39.5439z" />
    <glyph glyph-name="at" unicode="@" horiz-adv-x="851" 
d="M759.791 649.799c72.7852 -58 34.4277 -161.819 2.14844 -230.543c-37.0234 -78.8271 -87.6592 -151.854 -149.978 -212.8c-29.1729 -28.5322 -62.123 -59.708 -98.5947 -78.5703c-27.5176 -14.2295 -70.7285 -12.0303 -77.4102 25.1074
c-6.51758 36.2148 16.1143 78.0117 33.8457 107.932c16.874 28.4639 36.2305 55.3906 51.6367 84.5635c-55.6553 -34.9307 -101.839 -83.3525 -151.544 -125.992c-25.4941 -21.8701 -52.2256 -42.5293 -81.5361 -59.0654
c-18.7246 -10.5635 -49.6172 -25.7168 -64.6328 -0.981445c-13.4785 22.207 3.30664 52.7783 13.1533 72.9814c13.958 28.6475 31.4365 55.624 51.5898 80.2988c39.6934 48.5977 91.0498 88.8848 148.456 114.437c27.0195 12.0234 60.5137 20.7207 87.9883 5.10352
c25.0957 -14.2607 34.5176 -42.583 39.5518 -69.3184c1.26465 -6.70117 -8.71973 -10.6748 -13.7275 -7.45605c-15.4365 -34.3906 -37.6162 -64.9648 -57.1719 -97.1562c-12.9883 -21.3789 -59.4668 -98.7197 -22.8955 -115.931
c22.084 -10.3945 46.8545 11.9121 63.1914 24.2725c17.1953 13.0078 33.7275 26.874 49.4824 41.5977c30.7275 28.7236 58.7197 60.3408 83.75 94.1377c45.0303 60.8164 87.6895 134.008 105.682 208.092c9.32227 38.3867 8.30273 83.5977 -20.3145 114.046
c-27.8047 29.5898 -72.6748 31.5977 -110.56 29.2832c-161.329 -9.87402 -305.881 -99.0732 -408.053 -220.958c-52.0078 -62.042 -96.0879 -132.735 -125.038 -208.502c-26.4863 -69.3291 -44.0039 -151.815 -21.6016 -224.678
c10.4365 -33.958 30.2217 -64.291 61.0566 -82.9121c36.4443 -22.0117 81.7197 -26.0996 123.321 -22.9082c86.5635 6.63574 166.571 45.7236 242.02 85.9727c14.9697 7.98438 31.7588 -11.0771 15.6055 -19.6982c-94.7012 -50.5176 -198.984 -100.893 -309.429 -91.2109
c-46.126 4.04199 -91.8037 20.6396 -123.198 55.8545c-28.6738 32.165 -41.8574 75.6934 -45.4395 117.938c-7.52832 88.835 22.9355 179.662 63.5674 257.433c41.9199 80.2334 97.6826 154.616 164.679 215.616c67.5518 61.5098 147.042 110.149 234.64 137.134
c43.1494 13.291 87.916 21.6934 133.069 23.498c38.4717 1.53613 81.3486 -1.63672 112.689 -26.6172zM298.335 190.408c86.0693 56.916 149.668 141.899 242.419 189.551c-10.709 24.2188 -28.3799 43.5518 -59.0508 40.2686
c-31.4102 -3.36035 -62.751 -22.7207 -88.5557 -39.832c-43.5635 -28.8809 -81.3408 -66.5586 -110.253 -110.114c-14.4902 -21.8271 -27.709 -45.6162 -36.7852 -70.252c-5.69336 -15.4561 -7.80859 -37.8848 16.7695 -30.249
c12.3447 3.83887 24.709 13.5244 35.4561 20.6279z" />
    <glyph glyph-name="A" unicode="A" horiz-adv-x="492" 
d="M507.752 675.449c19.9385 10.1729 46.3115 17.5508 58.9893 -7.02051c13.9199 -26.9619 2.31055 -65.418 -6.38672 -92.2031c-25.0039 -77.0078 -53.0195 -152.988 -80.5674 -229.142c5.5752 -0.551758 11.1426 -1.29102 16.6904 -2.27539
c11.46 -2.03418 6.80859 -17.9961 -3.57031 -15.9883c-6.21484 1.20312 -12.4561 2.10742 -18.7168 2.75488c-20.6895 -57.3789 -40.9805 -114.9 -59.3672 -173.088c-44.5361 -140.923 -80.4785 -283.333 -103.367 -429.409
c-3.1416 -20.0498 -37.7314 -18.2031 -34.7891 3.78906c21.1191 157.916 64.6973 313.046 114.927 463.927c15.1494 45.502 30.9619 90.793 47.207 135.919c-31.835 -0.969727 -63.7812 -6.73633 -94.7852 -12.5605c-50.0762 -9.40625 -99.4863 -22.0615 -148.647 -35.3604
c-1.55566 -0.417969 -3.10742 -0.854492 -4.66309 -1.27637c-33.916 -53.3643 -65.9814 -107.938 -97.2227 -162.827c-31.9922 -56.2109 -63.3643 -112.778 -94.8926 -169.253c-15.4443 -27.6631 -30.5137 -55.5332 -45.9385 -83.2109
c-10.2109 -18.3223 -19.5938 -45.79 -43.2529 -48.9658c-8.63184 -1.16113 -8.85449 10.7812 -0.750977 11.9004c17.4639 2.41016 32.2373 42.0537 39.8232 55.8662c8.93848 16.2646 17.8154 32.5596 26.6621 48.874c17.7051 32.6475 34.7432 65.667 52.0996 98.502
c35.2109 66.6094 71.2109 132.831 109.291 197.854c8.51367 14.5361 17.1611 29.0146 25.9463 43.417c-69.8428 -19.8242 -138.843 -42.583 -205.858 -70.4834c3.79297 -1.51758 5.74707 -6.36816 0.988281 -9.31445c-13.3643 -8.2832 -27.0195 -11.0498 -42.4482 -7.64746
c-6.40625 1.41797 -6.46387 8.56738 -0.758789 11.1768c83.1377 37.9961 169.762 67.1533 257.666 91.8389c56.8926 91.8203 119.793 180.223 192.437 260.165c41.9502 46.1611 86.9961 95.3447 143.257 124.042zM535.297 592.908
c5.34863 17.1455 10.2686 36.2002 8.45605 54.3037c-2.48633 24.8047 -29.7773 6.96973 -41.7354 -0.375c-27.498 -16.8926 -51.333 -38.8086 -74.2373 -61.3682c-45.5596 -44.874 -87.498 -93.249 -126.686 -143.755c-35.6553 -45.9502 -68.8242 -93.7207 -100.36 -142.575
c1.38281 0.37207 2.76172 0.754883 4.14453 1.12695c49.3682 13.2334 99.0156 26 149.211 35.7129c29.6133 5.72754 59.9463 11.1143 90.2568 12.1445c5.41016 14.9199 10.8545 29.8281 16.3564 44.7129c24.582 66.5137 53.4746 132.387 74.5938 200.072z" />
    <glyph glyph-name="A" unicode="&#xc5;" horiz-adv-x="492" 
d="M507.752 675.449c19.9385 10.1729 46.3115 17.5508 58.9893 -7.02051c13.9199 -26.9619 2.31055 -65.418 -6.38672 -92.2031c-25.0039 -77.0078 -53.0195 -152.988 -80.5674 -229.142c5.5752 -0.551758 11.1426 -1.29102 16.6904 -2.27539
c11.46 -2.03418 6.80859 -17.9961 -3.57031 -15.9883c-6.21484 1.20312 -12.4561 2.10742 -18.7168 2.75488c-20.6895 -57.3789 -40.9805 -114.9 -59.3672 -173.088c-44.5361 -140.923 -80.4785 -283.333 -103.367 -429.409
c-3.1416 -20.0498 -37.7314 -18.2031 -34.7891 3.78906c21.1191 157.916 64.6973 313.046 114.927 463.927c15.1494 45.502 30.9619 90.793 47.207 135.919c-31.835 -0.969727 -63.7812 -6.73633 -94.7852 -12.5605c-50.0762 -9.40625 -99.4863 -22.0615 -148.647 -35.3604
c-1.55566 -0.417969 -3.10742 -0.854492 -4.66309 -1.27637c-33.916 -53.3643 -65.9814 -107.938 -97.2227 -162.827c-31.9922 -56.2109 -63.3643 -112.778 -94.8926 -169.253c-15.4443 -27.6631 -30.5137 -55.5332 -45.9385 -83.2109
c-10.2109 -18.3223 -19.5938 -45.79 -43.2529 -48.9658c-8.63184 -1.16113 -8.85449 10.7812 -0.750977 11.9004c17.4639 2.41016 32.2373 42.0537 39.8232 55.8662c8.93848 16.2646 17.8154 32.5596 26.6621 48.874c17.7051 32.6475 34.7432 65.667 52.0996 98.502
c35.2109 66.6094 71.2109 132.831 109.291 197.854c8.51367 14.5361 17.1611 29.0146 25.9463 43.417c-69.8428 -19.8242 -138.843 -42.583 -205.858 -70.4834c3.79297 -1.51758 5.74707 -6.36816 0.988281 -9.31445c-13.3643 -8.2832 -27.0195 -11.0498 -42.4482 -7.64746
c-6.40625 1.41797 -6.46387 8.56738 -0.758789 11.1768c83.1377 37.9961 169.762 67.1533 257.666 91.8389c56.8926 91.8203 119.793 180.223 192.437 260.165c41.9502 46.1611 86.9961 95.3447 143.257 124.042zM535.297 592.908
c5.34863 17.1455 10.2686 36.2002 8.45605 54.3037c-2.48633 24.8047 -29.7773 6.96973 -41.7354 -0.375c-27.498 -16.8926 -51.333 -38.8086 -74.2373 -61.3682c-45.5596 -44.874 -87.498 -93.249 -126.686 -143.755c-35.6553 -45.9502 -68.8242 -93.7207 -100.36 -142.575
c1.38281 0.37207 2.76172 0.754883 4.14453 1.12695c49.3682 13.2334 99.0156 26 149.211 35.7129c29.6133 5.72754 59.9463 11.1143 90.2568 12.1445c5.41016 14.9199 10.8545 29.8281 16.3564 44.7129c24.582 66.5137 53.4746 132.387 74.5938 200.072z" />
    <glyph glyph-name="A" unicode="&#xc4;" horiz-adv-x="492" 
d="M507.752 675.449c19.9385 10.1729 46.3115 17.5508 58.9893 -7.02051c13.9199 -26.9619 2.31055 -65.418 -6.38672 -92.2031c-25.0039 -77.0078 -53.0195 -152.988 -80.5674 -229.142c5.5752 -0.551758 11.1426 -1.29102 16.6904 -2.27539
c11.46 -2.03418 6.80859 -17.9961 -3.57031 -15.9883c-6.21484 1.20312 -12.4561 2.10742 -18.7168 2.75488c-20.6895 -57.3789 -40.9805 -114.9 -59.3672 -173.088c-44.5361 -140.923 -80.4785 -283.333 -103.367 -429.409
c-3.1416 -20.0498 -37.7314 -18.2031 -34.7891 3.78906c21.1191 157.916 64.6973 313.046 114.927 463.927c15.1494 45.502 30.9619 90.793 47.207 135.919c-31.835 -0.969727 -63.7812 -6.73633 -94.7852 -12.5605c-50.0762 -9.40625 -99.4863 -22.0615 -148.647 -35.3604
c-1.55566 -0.417969 -3.10742 -0.854492 -4.66309 -1.27637c-33.916 -53.3643 -65.9814 -107.938 -97.2227 -162.827c-31.9922 -56.2109 -63.3643 -112.778 -94.8926 -169.253c-15.4443 -27.6631 -30.5137 -55.5332 -45.9385 -83.2109
c-10.2109 -18.3223 -19.5938 -45.79 -43.2529 -48.9658c-8.63184 -1.16113 -8.85449 10.7812 -0.750977 11.9004c17.4639 2.41016 32.2373 42.0537 39.8232 55.8662c8.93848 16.2646 17.8154 32.5596 26.6621 48.874c17.7051 32.6475 34.7432 65.667 52.0996 98.502
c35.2109 66.6094 71.2109 132.831 109.291 197.854c8.51367 14.5361 17.1611 29.0146 25.9463 43.417c-69.8428 -19.8242 -138.843 -42.583 -205.858 -70.4834c3.79297 -1.51758 5.74707 -6.36816 0.988281 -9.31445c-13.3643 -8.2832 -27.0195 -11.0498 -42.4482 -7.64746
c-6.40625 1.41797 -6.46387 8.56738 -0.758789 11.1768c83.1377 37.9961 169.762 67.1533 257.666 91.8389c56.8926 91.8203 119.793 180.223 192.437 260.165c41.9502 46.1611 86.9961 95.3447 143.257 124.042zM535.297 592.908
c5.34863 17.1455 10.2686 36.2002 8.45605 54.3037c-2.48633 24.8047 -29.7773 6.96973 -41.7354 -0.375c-27.498 -16.8926 -51.333 -38.8086 -74.2373 -61.3682c-45.5596 -44.874 -87.498 -93.249 -126.686 -143.755c-35.6553 -45.9502 -68.8242 -93.7207 -100.36 -142.575
c1.38281 0.37207 2.76172 0.754883 4.14453 1.12695c49.3682 13.2334 99.0156 26 149.211 35.7129c29.6133 5.72754 59.9463 11.1143 90.2568 12.1445c5.41016 14.9199 10.8545 29.8281 16.3564 44.7129c24.582 66.5137 53.4746 132.387 74.5938 200.072z" />
    <glyph glyph-name="A" unicode="&#xc3;" horiz-adv-x="492" 
d="M507.752 675.449c19.9385 10.1729 46.3115 17.5508 58.9893 -7.02051c13.9199 -26.9619 2.31055 -65.418 -6.38672 -92.2031c-25.0039 -77.0078 -53.0195 -152.988 -80.5674 -229.142c5.5752 -0.551758 11.1426 -1.29102 16.6904 -2.27539
c11.46 -2.03418 6.80859 -17.9961 -3.57031 -15.9883c-6.21484 1.20312 -12.4561 2.10742 -18.7168 2.75488c-20.6895 -57.3789 -40.9805 -114.9 -59.3672 -173.088c-44.5361 -140.923 -80.4785 -283.333 -103.367 -429.409
c-3.1416 -20.0498 -37.7314 -18.2031 -34.7891 3.78906c21.1191 157.916 64.6973 313.046 114.927 463.927c15.1494 45.502 30.9619 90.793 47.207 135.919c-31.835 -0.969727 -63.7812 -6.73633 -94.7852 -12.5605c-50.0762 -9.40625 -99.4863 -22.0615 -148.647 -35.3604
c-1.55566 -0.417969 -3.10742 -0.854492 -4.66309 -1.27637c-33.916 -53.3643 -65.9814 -107.938 -97.2227 -162.827c-31.9922 -56.2109 -63.3643 -112.778 -94.8926 -169.253c-15.4443 -27.6631 -30.5137 -55.5332 -45.9385 -83.2109
c-10.2109 -18.3223 -19.5938 -45.79 -43.2529 -48.9658c-8.63184 -1.16113 -8.85449 10.7812 -0.750977 11.9004c17.4639 2.41016 32.2373 42.0537 39.8232 55.8662c8.93848 16.2646 17.8154 32.5596 26.6621 48.874c17.7051 32.6475 34.7432 65.667 52.0996 98.502
c35.2109 66.6094 71.2109 132.831 109.291 197.854c8.51367 14.5361 17.1611 29.0146 25.9463 43.417c-69.8428 -19.8242 -138.843 -42.583 -205.858 -70.4834c3.79297 -1.51758 5.74707 -6.36816 0.988281 -9.31445c-13.3643 -8.2832 -27.0195 -11.0498 -42.4482 -7.64746
c-6.40625 1.41797 -6.46387 8.56738 -0.758789 11.1768c83.1377 37.9961 169.762 67.1533 257.666 91.8389c56.8926 91.8203 119.793 180.223 192.437 260.165c41.9502 46.1611 86.9961 95.3447 143.257 124.042zM535.297 592.908
c5.34863 17.1455 10.2686 36.2002 8.45605 54.3037c-2.48633 24.8047 -29.7773 6.96973 -41.7354 -0.375c-27.498 -16.8926 -51.333 -38.8086 -74.2373 -61.3682c-45.5596 -44.874 -87.498 -93.249 -126.686 -143.755c-35.6553 -45.9502 -68.8242 -93.7207 -100.36 -142.575
c1.38281 0.37207 2.76172 0.754883 4.14453 1.12695c49.3682 13.2334 99.0156 26 149.211 35.7129c29.6133 5.72754 59.9463 11.1143 90.2568 12.1445c5.41016 14.9199 10.8545 29.8281 16.3564 44.7129c24.582 66.5137 53.4746 132.387 74.5938 200.072z" />
    <glyph glyph-name="A" unicode="&#xc2;" horiz-adv-x="492" 
d="M507.752 675.449c19.9385 10.1729 46.3115 17.5508 58.9893 -7.02051c13.9199 -26.9619 2.31055 -65.418 -6.38672 -92.2031c-25.0039 -77.0078 -53.0195 -152.988 -80.5674 -229.142c5.5752 -0.551758 11.1426 -1.29102 16.6904 -2.27539
c11.46 -2.03418 6.80859 -17.9961 -3.57031 -15.9883c-6.21484 1.20312 -12.4561 2.10742 -18.7168 2.75488c-20.6895 -57.3789 -40.9805 -114.9 -59.3672 -173.088c-44.5361 -140.923 -80.4785 -283.333 -103.367 -429.409
c-3.1416 -20.0498 -37.7314 -18.2031 -34.7891 3.78906c21.1191 157.916 64.6973 313.046 114.927 463.927c15.1494 45.502 30.9619 90.793 47.207 135.919c-31.835 -0.969727 -63.7812 -6.73633 -94.7852 -12.5605c-50.0762 -9.40625 -99.4863 -22.0615 -148.647 -35.3604
c-1.55566 -0.417969 -3.10742 -0.854492 -4.66309 -1.27637c-33.916 -53.3643 -65.9814 -107.938 -97.2227 -162.827c-31.9922 -56.2109 -63.3643 -112.778 -94.8926 -169.253c-15.4443 -27.6631 -30.5137 -55.5332 -45.9385 -83.2109
c-10.2109 -18.3223 -19.5938 -45.79 -43.2529 -48.9658c-8.63184 -1.16113 -8.85449 10.7812 -0.750977 11.9004c17.4639 2.41016 32.2373 42.0537 39.8232 55.8662c8.93848 16.2646 17.8154 32.5596 26.6621 48.874c17.7051 32.6475 34.7432 65.667 52.0996 98.502
c35.2109 66.6094 71.2109 132.831 109.291 197.854c8.51367 14.5361 17.1611 29.0146 25.9463 43.417c-69.8428 -19.8242 -138.843 -42.583 -205.858 -70.4834c3.79297 -1.51758 5.74707 -6.36816 0.988281 -9.31445c-13.3643 -8.2832 -27.0195 -11.0498 -42.4482 -7.64746
c-6.40625 1.41797 -6.46387 8.56738 -0.758789 11.1768c83.1377 37.9961 169.762 67.1533 257.666 91.8389c56.8926 91.8203 119.793 180.223 192.437 260.165c41.9502 46.1611 86.9961 95.3447 143.257 124.042zM535.297 592.908
c5.34863 17.1455 10.2686 36.2002 8.45605 54.3037c-2.48633 24.8047 -29.7773 6.96973 -41.7354 -0.375c-27.498 -16.8926 -51.333 -38.8086 -74.2373 -61.3682c-45.5596 -44.874 -87.498 -93.249 -126.686 -143.755c-35.6553 -45.9502 -68.8242 -93.7207 -100.36 -142.575
c1.38281 0.37207 2.76172 0.754883 4.14453 1.12695c49.3682 13.2334 99.0156 26 149.211 35.7129c29.6133 5.72754 59.9463 11.1143 90.2568 12.1445c5.41016 14.9199 10.8545 29.8281 16.3564 44.7129c24.582 66.5137 53.4746 132.387 74.5938 200.072z" />
    <glyph glyph-name="A" unicode="&#xc1;" horiz-adv-x="492" 
d="M507.752 675.449c19.9385 10.1729 46.3115 17.5508 58.9893 -7.02051c13.9199 -26.9619 2.31055 -65.418 -6.38672 -92.2031c-25.0039 -77.0078 -53.0195 -152.988 -80.5674 -229.142c5.5752 -0.551758 11.1426 -1.29102 16.6904 -2.27539
c11.46 -2.03418 6.80859 -17.9961 -3.57031 -15.9883c-6.21484 1.20312 -12.4561 2.10742 -18.7168 2.75488c-20.6895 -57.3789 -40.9805 -114.9 -59.3672 -173.088c-44.5361 -140.923 -80.4785 -283.333 -103.367 -429.409
c-3.1416 -20.0498 -37.7314 -18.2031 -34.7891 3.78906c21.1191 157.916 64.6973 313.046 114.927 463.927c15.1494 45.502 30.9619 90.793 47.207 135.919c-31.835 -0.969727 -63.7812 -6.73633 -94.7852 -12.5605c-50.0762 -9.40625 -99.4863 -22.0615 -148.647 -35.3604
c-1.55566 -0.417969 -3.10742 -0.854492 -4.66309 -1.27637c-33.916 -53.3643 -65.9814 -107.938 -97.2227 -162.827c-31.9922 -56.2109 -63.3643 -112.778 -94.8926 -169.253c-15.4443 -27.6631 -30.5137 -55.5332 -45.9385 -83.2109
c-10.2109 -18.3223 -19.5938 -45.79 -43.2529 -48.9658c-8.63184 -1.16113 -8.85449 10.7812 -0.750977 11.9004c17.4639 2.41016 32.2373 42.0537 39.8232 55.8662c8.93848 16.2646 17.8154 32.5596 26.6621 48.874c17.7051 32.6475 34.7432 65.667 52.0996 98.502
c35.2109 66.6094 71.2109 132.831 109.291 197.854c8.51367 14.5361 17.1611 29.0146 25.9463 43.417c-69.8428 -19.8242 -138.843 -42.583 -205.858 -70.4834c3.79297 -1.51758 5.74707 -6.36816 0.988281 -9.31445c-13.3643 -8.2832 -27.0195 -11.0498 -42.4482 -7.64746
c-6.40625 1.41797 -6.46387 8.56738 -0.758789 11.1768c83.1377 37.9961 169.762 67.1533 257.666 91.8389c56.8926 91.8203 119.793 180.223 192.437 260.165c41.9502 46.1611 86.9961 95.3447 143.257 124.042zM535.297 592.908
c5.34863 17.1455 10.2686 36.2002 8.45605 54.3037c-2.48633 24.8047 -29.7773 6.96973 -41.7354 -0.375c-27.498 -16.8926 -51.333 -38.8086 -74.2373 -61.3682c-45.5596 -44.874 -87.498 -93.249 -126.686 -143.755c-35.6553 -45.9502 -68.8242 -93.7207 -100.36 -142.575
c1.38281 0.37207 2.76172 0.754883 4.14453 1.12695c49.3682 13.2334 99.0156 26 149.211 35.7129c29.6133 5.72754 59.9463 11.1143 90.2568 12.1445c5.41016 14.9199 10.8545 29.8281 16.3564 44.7129c24.582 66.5137 53.4746 132.387 74.5938 200.072z" />
    <glyph glyph-name="B" unicode="B" horiz-adv-x="546" 
d="M480.237 648.085c37.6592 5.08008 95.3877 7.07812 105.82 -40.4199c10.1494 -46.1992 -24.7246 -96.4482 -50.4482 -131.448c-56.4717 -76.8311 -124.981 -144.602 -194.135 -210.494c13.1533 5.29883 26.4404 10.2373 39.9648 14.54
c25.2988 8.04199 55.1455 18.1836 81.8311 11.5127c55.4678 -13.8623 39.6787 -79.6172 22.3721 -117.195c-11.1836 -24.2793 -25.4824 -47.084 -41.4023 -68.8076c0.467773 -0.21875 0.946289 -0.414062 1.41406 -0.639648
c13.2871 -6.43262 1.78906 -25.1494 -10.1533 -19.3789c-1.62109 0.785156 -3.24902 1.49805 -4.88086 2.14941c-14.2109 -17.9697 -29.2949 -35.2266 -44.3984 -51.9775c-38.2793 -42.46 -79.9111 -81.8965 -124.202 -118.038
c-44.0996 -35.9844 -91.0693 -70.8115 -142.012 -96.5322c-34.1572 -17.249 -101.042 -46.3682 -135.398 -14.8818c-34.7393 31.8389 4.59375 88.3135 26.7393 115.244c34.0537 41.4102 80.3604 73.3486 126.065 100.54c48.4102 28.8047 100.092 52.1914 153.809 69.168
c38.5059 12.1729 86.5176 29.1113 128.621 21.8389c15.0957 20.126 28.8428 41.21 39.8809 63.8193c16.8271 34.46 34.2178 100.632 -27.7129 92.3174c-49.3984 -6.63184 -97.2334 -30.915 -142.164 -51.2139c-10.5713 -4.77441 -23.3223 8.53613 -13.7666 17.5518
c86.0879 81.1953 175.283 162.885 245.245 258.935c19.7168 27.0732 76.165 110.97 21.5635 131.786c-24.5635 9.36426 -56.8818 3.36035 -81.8779 -1.75879c-26.3643 -5.39844 -51.916 -14.3682 -76.751 -24.6094c-95.6777 -39.4443 -185.885 -94.4668 -267.191 -158.287
c-38.9961 -30.6094 -77.1338 -63.2188 -109.395 -101.016c-17.1836 -20.1299 -34.3027 -42.5322 -45.2334 -66.8271c-18.2871 -40.6475 25.0576 -43.0537 54.1689 -41.2031c26.249 1.66699 52.1689 6.85449 78.5332 6.9541
c15.2568 0.0615234 33.9541 -0.195312 45.6133 -11.7354c2.29883 -2.27539 4.17969 -4.79688 5.74316 -7.49023c6.22266 16.54 12.7246 32.9766 19.583 49.252c26.1035 61.9424 56.8809 122.072 92.7275 178.942c9.32227 14.7852 37.9736 7.07227 27.7051 -10.2764
c-33.6973 -56.9229 -64.9199 -115.118 -91.916 -175.536c-13.7314 -30.7354 -26.3906 -61.8584 -38.1299 -93.4023c-11.1729 -30.0195 -19.2305 -62.5938 -33.3535 -91.3604c-4.39062 -8.94629 -18.4561 -6.07227 -17.5938 4.11914
c0.950195 11.2188 3.11133 22.5938 5.9502 33.9541c-0.165039 1.0498 0.0761719 2.27246 0.888672 3.62891c0.015625 0.0263672 0.0351562 0.0566406 0.0507812 0.0830078c5.59375 21.2529 13.4287 42.3789 20.2529 62.2334c1.47852 4.30273 3.02246 8.58594 4.54395 12.877
c-0.456055 9.68164 -3.50977 18.0801 -10.5898 23.6582c-13.8848 10.9385 -39.1572 6.20703 -55.498 4.37598c-16.6709 -1.87012 -33.2031 -4.81641 -49.9004 -6.46387c-22.6738 -2.2334 -53.1064 -5.27148 -72.2217 10.043
c-18.3223 14.6738 -13.0889 38.4512 -4.1123 56.9189c22.9268 47.165 60.5361 87.3145 98.9844 122.207c40.7129 36.9502 84.334 70.8125 129.844 101.64c46.9121 31.7773 96.0771 60.2061 146.924 85.2021c50.4561 24.8086 103.426 47.9238 159.599 55.502z
M377.989 62.3018c8.93066 10.2256 17.7959 20.6006 26.4014 31.2021c-16.9502 0.923828 -34.1992 -2.52441 -51.2295 -6.38281c-27.0156 -6.12305 -53.6289 -14.0615 -79.6904 -23.4297c-48.9727 -17.6016 -95.9531 -40.5059 -139.865 -68.4404
c-36.2412 -23.0498 -72.1875 -48.877 -100.371 -81.5938c-14.7852 -17.165 -30.5361 -38.8242 -35.3633 -61.4951c-5.84668 -27.4785 13.7891 -36.8467 38.042 -34.2871c47.9307 5.05762 91.5742 31.7705 130.689 58.0889c38.1338 25.6553 74.6816 53.7207 109.275 83.9854
c36.2793 31.7432 70.3984 66.0498 102.111 102.353z" />
    <glyph glyph-name="C" unicode="C" horiz-adv-x="408" 
d="M108.405 -84.2588c-47.0762 -28.9346 -113.406 -43.4307 -160.322 -5.53027c-47.5977 38.4678 -52.0342 110.939 -47.1797 166.985c11.4443 132.084 74.9541 260.977 154.824 364.861c38.582 50.1758 82.9004 100.268 138.153 132.459
c39.6279 23.0918 113.893 52.958 146.865 3.79688c29.3682 -43.7852 2.80469 -107.402 -25.2031 -144.713c-27.2686 -36.3291 -87.1846 -84.4551 -132.595 -49.1826c-9.20703 7.15332 3.37109 18.8809 12.0068 13.4365c29.0078 -18.2832 63.5098 3.84668 84.667 24.3252
c21.9346 21.2295 38.4668 48.2832 46.6504 77.7432c6.56348 23.6211 9.34082 60.1885 -15.5596 74.7129c-25.6514 14.9658 -63.6396 -3.20703 -86.9619 -15.4219c-47.1797 -24.709 -85.3672 -63.7471 -119.467 -103.958
c-35.5781 -41.9541 -66.8965 -87.376 -93.1533 -135.729c-25.1875 -46.3789 -45.8154 -95.3135 -60.624 -145.987c-16.6895 -57.1035 -28.8232 -118.398 -19.3828 -177.896c4.26855 -26.9121 14.3984 -54.8584 36.6172 -72.0957
c21.0303 -16.3145 49.1797 -20.2344 74.8613 -15.8057c55.835 9.63184 104.207 54.1836 142.598 93.1104c74.7627 75.8086 130.038 167.866 201.088 246.893c5.16895 5.74707 15.4795 -0.567383 9.79395 -6.96191c-49.5322 -55.7168 -91.5088 -117.406 -137.325 -176.092
c-42.9883 -55.0654 -90.1143 -111.924 -150.352 -148.95z" />
    <glyph glyph-name="D" unicode="D" horiz-adv-x="613" 
d="M570.216 649.062c90.9502 -47.4404 79.959 -158.876 55.4414 -242.5c-29.0381 -99.0459 -82.4062 -190.793 -139.828 -275.893c-56.5098 -83.751 -122.651 -161.586 -203.022 -223.409c-38.1875 -29.3789 -80.1953 -55.9463 -126.912 -69.2031
c-38.6475 -10.9658 -89.8125 -9.18457 -92.1914 42.1104c-2.12598 45.8203 26.9971 96.0117 51.166 132.705c16.6895 25.333 35.2178 49.5244 54.9531 72.6621c-0.689453 1.3252 -1.06836 2.94238 -0.938477 4.9502c1.3291 20.3066 4.19531 40.7666 8.1377 61.1992
c1.91211 27.9121 -1.47461 58.1152 -29.4629 70.498c-27.7168 12.2646 -60.4834 -1.80078 -86.25 -12.7588c-27.1758 -11.5596 -101.076 -54.8281 -123.486 -16.6943c-11.9238 20.2871 -2.58301 51.3252 3.38672 71.9189c7.65137 26.3984 19.2334 51.5557 32.8545 75.376
c25.4521 44.5137 56.9844 85.8506 92.2451 123.012c63.9307 67.3789 141.536 121.893 226.693 158.98c82.5205 35.9424 191.64 71.6816 277.214 27.0459zM618.987 510.669c1.55176 45.0693 -11.2793 89.3701 -49.9844 115.979
c-41.9619 28.8467 -95.3799 28.1221 -143.479 19.0303c-167.801 -31.7051 -321.95 -139.663 -414.885 -281.928c-25.3486 -38.8008 -47.6211 -80.9658 -55.7285 -127.042c-2.54785 -14.4863 -7.66309 -37.3828 13.9082 -40.1953
c9.84668 -1.2832 24.0918 4.64746 33.2334 7.75488c20.0732 6.81641 39.1191 16.2803 58.8242 24.0391c31.4248 12.375 76.2373 26.5586 105.253 1.20215c10.9697 -9.58594 17.3721 -21.4131 20.8584 -34.2793c11.1191 42.3486 25.8506 84.0537 40.7207 123.49
c28.6094 75.8809 65.7588 148.827 110.353 216.559c9.45996 14.3682 37.8779 6.53711 27.2803 -10.1182c-41.8623 -65.7852 -77.6514 -134.705 -106.514 -207.165c-15 -37.6553 -27.8428 -76.1533 -38.6934 -115.199c-7.62109 -27.4287 -13.1113 -55.3828 -19.5752 -83.0645
c2.47461 2.62793 4.93457 5.27148 7.43652 7.86914c35.8389 37.2451 74.8545 71.6055 116.353 102.426c40.1914 29.8467 82.2217 57.5938 131.363 69.7354c17.9268 4.42871 18.0107 -21.0234 1.58594 -25.1846c-51.5322 -13.0615 -96.7119 -48.502 -137.543 -81.126
c-40.1377 -32.0732 -77.3604 -67.6709 -111.398 -106.146c-34.2529 -38.7207 -67.0195 -80.2607 -89.9541 -126.828c-10.5781 -21.4746 -21.9727 -46.6201 -22.9531 -70.9424c-1.42188 -35.2188 31.9883 -30.5869 56.417 -23.208
c83.8164 25.3184 156.054 92.7324 213.789 156.008c61.7627 67.6895 113.59 144.245 159.08 223.624c45.5781 79.5322 91.0342 171.245 94.2529 264.709z" />
    <glyph glyph-name="E" unicode="E" horiz-adv-x="460" 
d="M290.338 382.365c29.5859 36.6016 59.8066 73.3291 83.6455 114.034c17.667 30.1836 62.165 105.463 -1.0918 110.141c-40.4102 2.98438 -80.8926 -15.4717 -116.391 -32.7012c-33.2568 -16.1416 -64.9463 -35.5479 -94.7393 -57.418
c-58.709 -43.0918 -110.28 -96.5742 -150.119 -157.608c-20.6396 -31.6211 -42.0146 -68.7969 -42.6855 -107.64c-0.820312 -47.5713 41.2256 -52.7363 79.1953 -49.541c16.9238 1.42871 33.5635 4.17969 49.8623 8.05664c6.99609 5.30664 14.0498 10.54 21.2109 15.6133
c40.9502 29.0078 84.2832 56.5938 134.889 63.6592c10.1875 1.42188 19.3828 -11.0225 10.7617 -19.0645c-37.0762 -34.5938 -80.4053 -61.1416 -128.551 -77.4365c-11.6055 -3.92676 -23.9199 -7.59375 -36.5791 -10.6855
c-26.8887 -21.2227 -52.3789 -44.1689 -76.2871 -68.7324c-57.2715 -58.8428 -117.877 -131.249 -137.704 -212.724c-4.78516 -19.6475 -9.19531 -45.333 11.0693 -57.873c15.9238 -9.85449 38.6445 -8.22266 56.4336 -6.40234
c45.8887 4.68555 90.3252 23.2607 130.647 44.9463c74.207 39.9082 145.023 93.6709 206.487 151.161c30.7705 28.7852 61.0273 60.709 82.3721 97.2725c10.3066 17.6514 28.709 49.6816 15.3223 69.6123c-9.74707 14.5176 -30.8701 16.8281 -43.8701 6.11523
c-6.54004 -5.39062 -17.3213 3.77441 -10.4707 9.9043c24.1729 21.6279 68.6904 13.249 76.2344 -20.9961c5.63965 -25.6055 -10.5977 -55.7432 -23.3643 -76.7666c-14.2451 -23.4639 -31.7852 -45.0498 -50.2793 -65.2646
c-35.2188 -38.5059 -75.5293 -72.1191 -116.709 -104.016c-41.7129 -32.3105 -84.9424 -62.9844 -131.713 -87.5977c-45.3945 -23.8887 -95.5322 -44.1953 -147.387 -46.4248c-39.8506 -1.71289 -83.0342 10.3906 -83.4707 57.5283
c-0.444336 47.8545 26.8242 97.5254 52.0771 136.468c27.5977 42.5635 59.8047 82.334 95.1152 118.725c15.9346 16.4248 32.5977 32.168 49.8545 47.2334c-19.5635 -1.79297 -39.0498 -1.35254 -57.3447 2.60547c-103.518 22.3867 -34.0195 151.743 1.93848 202.908
c50.7393 72.1953 116.218 134.05 191.425 180.253c37.751 23.1953 78.751 44.6973 121.333 57.3867c30.2871 9.02344 85.375 21.0156 107.176 -11.3066c22.4482 -33.2832 -13.5518 -86.582 -30.2754 -114.712c-24.8311 -41.7705 -54.4053 -80.2451 -84.3096 -118.456
c-6.69727 -8.55957 -21.2188 0.452148 -13.709 9.74316z" />
    <glyph glyph-name="E" unicode="&#xcb;" horiz-adv-x="460" 
d="M290.338 382.365c29.5859 36.6016 59.8066 73.3291 83.6455 114.034c17.667 30.1836 62.165 105.463 -1.0918 110.141c-40.4102 2.98438 -80.8926 -15.4717 -116.391 -32.7012c-33.2568 -16.1416 -64.9463 -35.5479 -94.7393 -57.418
c-58.709 -43.0918 -110.28 -96.5742 -150.119 -157.608c-20.6396 -31.6211 -42.0146 -68.7969 -42.6855 -107.64c-0.820312 -47.5713 41.2256 -52.7363 79.1953 -49.541c16.9238 1.42871 33.5635 4.17969 49.8623 8.05664c6.99609 5.30664 14.0498 10.54 21.2109 15.6133
c40.9502 29.0078 84.2832 56.5938 134.889 63.6592c10.1875 1.42188 19.3828 -11.0225 10.7617 -19.0645c-37.0762 -34.5938 -80.4053 -61.1416 -128.551 -77.4365c-11.6055 -3.92676 -23.9199 -7.59375 -36.5791 -10.6855
c-26.8887 -21.2227 -52.3789 -44.1689 -76.2871 -68.7324c-57.2715 -58.8428 -117.877 -131.249 -137.704 -212.724c-4.78516 -19.6475 -9.19531 -45.333 11.0693 -57.873c15.9238 -9.85449 38.6445 -8.22266 56.4336 -6.40234
c45.8887 4.68555 90.3252 23.2607 130.647 44.9463c74.207 39.9082 145.023 93.6709 206.487 151.161c30.7705 28.7852 61.0273 60.709 82.3721 97.2725c10.3066 17.6514 28.709 49.6816 15.3223 69.6123c-9.74707 14.5176 -30.8701 16.8281 -43.8701 6.11523
c-6.54004 -5.39062 -17.3213 3.77441 -10.4707 9.9043c24.1729 21.6279 68.6904 13.249 76.2344 -20.9961c5.63965 -25.6055 -10.5977 -55.7432 -23.3643 -76.7666c-14.2451 -23.4639 -31.7852 -45.0498 -50.2793 -65.2646
c-35.2188 -38.5059 -75.5293 -72.1191 -116.709 -104.016c-41.7129 -32.3105 -84.9424 -62.9844 -131.713 -87.5977c-45.3945 -23.8887 -95.5322 -44.1953 -147.387 -46.4248c-39.8506 -1.71289 -83.0342 10.3906 -83.4707 57.5283
c-0.444336 47.8545 26.8242 97.5254 52.0771 136.468c27.5977 42.5635 59.8047 82.334 95.1152 118.725c15.9346 16.4248 32.5977 32.168 49.8545 47.2334c-19.5635 -1.79297 -39.0498 -1.35254 -57.3447 2.60547c-103.518 22.3867 -34.0195 151.743 1.93848 202.908
c50.7393 72.1953 116.218 134.05 191.425 180.253c37.751 23.1953 78.751 44.6973 121.333 57.3867c30.2871 9.02344 85.375 21.0156 107.176 -11.3066c22.4482 -33.2832 -13.5518 -86.582 -30.2754 -114.712c-24.8311 -41.7705 -54.4053 -80.2451 -84.3096 -118.456
c-6.69727 -8.55957 -21.2188 0.452148 -13.709 9.74316z" />
    <glyph glyph-name="E" unicode="&#xca;" horiz-adv-x="460" 
d="M290.338 382.365c29.5859 36.6016 59.8066 73.3291 83.6455 114.034c17.667 30.1836 62.165 105.463 -1.0918 110.141c-40.4102 2.98438 -80.8926 -15.4717 -116.391 -32.7012c-33.2568 -16.1416 -64.9463 -35.5479 -94.7393 -57.418
c-58.709 -43.0918 -110.28 -96.5742 -150.119 -157.608c-20.6396 -31.6211 -42.0146 -68.7969 -42.6855 -107.64c-0.820312 -47.5713 41.2256 -52.7363 79.1953 -49.541c16.9238 1.42871 33.5635 4.17969 49.8623 8.05664c6.99609 5.30664 14.0498 10.54 21.2109 15.6133
c40.9502 29.0078 84.2832 56.5938 134.889 63.6592c10.1875 1.42188 19.3828 -11.0225 10.7617 -19.0645c-37.0762 -34.5938 -80.4053 -61.1416 -128.551 -77.4365c-11.6055 -3.92676 -23.9199 -7.59375 -36.5791 -10.6855
c-26.8887 -21.2227 -52.3789 -44.1689 -76.2871 -68.7324c-57.2715 -58.8428 -117.877 -131.249 -137.704 -212.724c-4.78516 -19.6475 -9.19531 -45.333 11.0693 -57.873c15.9238 -9.85449 38.6445 -8.22266 56.4336 -6.40234
c45.8887 4.68555 90.3252 23.2607 130.647 44.9463c74.207 39.9082 145.023 93.6709 206.487 151.161c30.7705 28.7852 61.0273 60.709 82.3721 97.2725c10.3066 17.6514 28.709 49.6816 15.3223 69.6123c-9.74707 14.5176 -30.8701 16.8281 -43.8701 6.11523
c-6.54004 -5.39062 -17.3213 3.77441 -10.4707 9.9043c24.1729 21.6279 68.6904 13.249 76.2344 -20.9961c5.63965 -25.6055 -10.5977 -55.7432 -23.3643 -76.7666c-14.2451 -23.4639 -31.7852 -45.0498 -50.2793 -65.2646
c-35.2188 -38.5059 -75.5293 -72.1191 -116.709 -104.016c-41.7129 -32.3105 -84.9424 -62.9844 -131.713 -87.5977c-45.3945 -23.8887 -95.5322 -44.1953 -147.387 -46.4248c-39.8506 -1.71289 -83.0342 10.3906 -83.4707 57.5283
c-0.444336 47.8545 26.8242 97.5254 52.0771 136.468c27.5977 42.5635 59.8047 82.334 95.1152 118.725c15.9346 16.4248 32.5977 32.168 49.8545 47.2334c-19.5635 -1.79297 -39.0498 -1.35254 -57.3447 2.60547c-103.518 22.3867 -34.0195 151.743 1.93848 202.908
c50.7393 72.1953 116.218 134.05 191.425 180.253c37.751 23.1953 78.751 44.6973 121.333 57.3867c30.2871 9.02344 85.375 21.0156 107.176 -11.3066c22.4482 -33.2832 -13.5518 -86.582 -30.2754 -114.712c-24.8311 -41.7705 -54.4053 -80.2451 -84.3096 -118.456
c-6.69727 -8.55957 -21.2188 0.452148 -13.709 9.74316z" />
    <glyph glyph-name="E" unicode="&#xc9;" horiz-adv-x="460" 
d="M290.338 382.365c29.5859 36.6016 59.8066 73.3291 83.6455 114.034c17.667 30.1836 62.165 105.463 -1.0918 110.141c-40.4102 2.98438 -80.8926 -15.4717 -116.391 -32.7012c-33.2568 -16.1416 -64.9463 -35.5479 -94.7393 -57.418
c-58.709 -43.0918 -110.28 -96.5742 -150.119 -157.608c-20.6396 -31.6211 -42.0146 -68.7969 -42.6855 -107.64c-0.820312 -47.5713 41.2256 -52.7363 79.1953 -49.541c16.9238 1.42871 33.5635 4.17969 49.8623 8.05664c6.99609 5.30664 14.0498 10.54 21.2109 15.6133
c40.9502 29.0078 84.2832 56.5938 134.889 63.6592c10.1875 1.42188 19.3828 -11.0225 10.7617 -19.0645c-37.0762 -34.5938 -80.4053 -61.1416 -128.551 -77.4365c-11.6055 -3.92676 -23.9199 -7.59375 -36.5791 -10.6855
c-26.8887 -21.2227 -52.3789 -44.1689 -76.2871 -68.7324c-57.2715 -58.8428 -117.877 -131.249 -137.704 -212.724c-4.78516 -19.6475 -9.19531 -45.333 11.0693 -57.873c15.9238 -9.85449 38.6445 -8.22266 56.4336 -6.40234
c45.8887 4.68555 90.3252 23.2607 130.647 44.9463c74.207 39.9082 145.023 93.6709 206.487 151.161c30.7705 28.7852 61.0273 60.709 82.3721 97.2725c10.3066 17.6514 28.709 49.6816 15.3223 69.6123c-9.74707 14.5176 -30.8701 16.8281 -43.8701 6.11523
c-6.54004 -5.39062 -17.3213 3.77441 -10.4707 9.9043c24.1729 21.6279 68.6904 13.249 76.2344 -20.9961c5.63965 -25.6055 -10.5977 -55.7432 -23.3643 -76.7666c-14.2451 -23.4639 -31.7852 -45.0498 -50.2793 -65.2646
c-35.2188 -38.5059 -75.5293 -72.1191 -116.709 -104.016c-41.7129 -32.3105 -84.9424 -62.9844 -131.713 -87.5977c-45.3945 -23.8887 -95.5322 -44.1953 -147.387 -46.4248c-39.8506 -1.71289 -83.0342 10.3906 -83.4707 57.5283
c-0.444336 47.8545 26.8242 97.5254 52.0771 136.468c27.5977 42.5635 59.8047 82.334 95.1152 118.725c15.9346 16.4248 32.5977 32.168 49.8545 47.2334c-19.5635 -1.79297 -39.0498 -1.35254 -57.3447 2.60547c-103.518 22.3867 -34.0195 151.743 1.93848 202.908
c50.7393 72.1953 116.218 134.05 191.425 180.253c37.751 23.1953 78.751 44.6973 121.333 57.3867c30.2871 9.02344 85.375 21.0156 107.176 -11.3066c22.4482 -33.2832 -13.5518 -86.582 -30.2754 -114.712c-24.8311 -41.7705 -54.4053 -80.2451 -84.3096 -118.456
c-6.69727 -8.55957 -21.2188 0.452148 -13.709 9.74316z" />
    <glyph glyph-name="F" unicode="F" horiz-adv-x="495" 
d="M348.266 222.15c-11.3184 -3.15332 -22.416 -7.11035 -33.374 -11.3633c-11.9463 -4.64355 -23.7627 -9.64746 -35.4639 -14.9121c-30.3604 -112.984 -53.8164 -227.482 -72.2266 -343.152c-2.79297 -17.54 -33.4482 -15.9619 -30.5137 3.3252
c16.1611 106.149 39.2646 211.482 67.9316 315.114c-3.42578 -0.314453 -6.75488 1.2832 -6.7666 4.72754c-37.9385 -19.3945 -73.0225 -41.5059 -107.279 -66.5674c0.302734 -3.0918 -1.96191 -6.9082 -5.70508 -7.37207l-6.51855 -1.24219
c-6.89648 -2.00781 -13.4521 4.19922 -8.33691 10.6279c22.624 28.4219 57.7236 47.4639 88.8311 65.0352c15.0039 8.47168 30.2373 16.5977 45.6738 24.3291c5.48242 20.4102 10.3867 40.9619 14.5557 61.6934c4.72754 23.5244 17.168 59.6738 4.3291 82.0566
c-24.4326 42.6016 -110.222 -20.5176 -135.632 -38.4834c-77.1299 -54.5361 -139.9 -126.479 -215.755 -182.678c-6.49023 -4.80859 -18.3672 -0.579102 -16.248 8.58594c11.7393 50.7549 42.1758 93.8164 71.9502 135.605c32.1836 45.1758 67.0459 88.3555 104.096 129.628
c64.2256 71.5479 135.479 136.97 212.425 194.644c75.8809 56.877 159.417 106.797 252.19 129.923c40.7314 10.1533 88.9502 15.4902 122.41 -15.4863c33.3867 -30.9121 21.6201 -73.5176 5.90723 -110.288c-34.7354 -81.2832 -93.2949 -151.662 -167.717 -199.409
c-13.7168 -8.79688 -29.1611 8.7168 -14.8125 18.6934c73.1299 50.8584 135.766 122.1 168.038 205.946c8.90039 23.126 13.0918 49.0566 -5.79297 68.543c-16.667 17.1992 -41.6055 21.6895 -64.5752 20.0996c-43.5215 -3.01172 -87.5596 -19.6289 -127.131 -37.1963
c-0.919922 -0.410156 -1.82812 -0.850586 -2.74805 -1.26465c-54.0195 -132.743 -108.651 -263.923 -149.663 -401.528c-4.91992 -16.498 -9.6709 -33.0303 -14.2764 -49.5938c6.11523 2.6748 12.249 5.2959 18.4248 7.80957
c27.2686 11.0957 72.8086 31.6016 102.33 18.8281c21.0303 -9.0957 20.6816 -36.0654 0.71582 -45.5176c-13.6318 -6.45605 -21.0146 13.1914 -7.47461 19.4746c-5.39453 7.52539 -12.1914 10.1074 -20.3906 7.74707
c-2.32227 -0.329102 -4.64453 -0.662109 -6.9668 -0.995117c-8.22266 -1.26074 -16.4414 -3.15723 -24.4414 -5.38672zM162.092 348.964c30.4561 16.582 95.8203 50.1758 117.046 2.6543c9.7666 -21.8701 1.80469 -50.6943 -2.7666 -73.3799
c0.119141 0.37207 0.230469 0.74707 0.349609 1.11914c41.0957 129.759 88.6357 261.008 152.076 381.927c-69.8701 -34.5439 -133.747 -81.3408 -193.524 -130.908c-65.8809 -54.624 -126.781 -115.559 -181.49 -181.367
c-28.5137 -34.2988 -55.4902 -69.9004 -80.6436 -106.735c-18.3486 -26.8701 -36.249 -54.3643 -47.9541 -84.5977c78.9229 63.8662 146.984 142.318 236.907 191.288z" />
    <glyph glyph-name="G" unicode="G" horiz-adv-x="484" 
d="M278.969 -5.1748c-33.1914 -34.5361 -70.7021 -67.832 -115.625 -86.0234c-32.1572 -13.0264 -81.8281 -18.4785 -94.9434 23.2988c-12.4482 39.6514 9.65137 91.6738 26.2148 127.134c41.3682 88.5713 108.633 168.778 179.848 234.912
c59.7432 55.4785 126.498 102.9 198.613 140.693c21.7773 92.8965 40.8965 215.946 -10.8203 209.119c-24.4521 -3.22949 -47.8047 -27.8574 -65.7314 -43.0986c-4.19531 -3.57129 -8.34082 -7.19238 -12.46 -10.8477
c-1.19922 -3.68164 -2.43262 -7.28711 -3.66992 -10.7773c-1.78125 -5.02637 -9.0918 -6.39844 -12.168 -3.62402c-8.07617 -7.50586 -16.0459 -15.1299 -23.9268 -22.8389c-33.7393 -33.0156 -65.915 -67.5752 -99.2373 -101.004
c-33.6172 -33.7236 -68.498 -66.5049 -106.801 -94.9033c-31.6777 -23.4863 -74.9961 -58.5664 -117.076 -51.7197c-49.291 8.01953 -46.2217 61.4717 -36.6201 99.085c11.8008 46.2373 35.6973 89.8047 62.8203 128.763c51.6211 74.1377 129.613 146.678 217.996 172.762
c34.8125 10.2725 80.5059 15.3916 109.038 -12.2559c20.0342 -19.4141 22.1836 -45.6709 17.8232 -71.4873c26.7773 23.877 63.2256 52.9004 95.7158 36.376c36.9658 -18.8008 28.7168 -82.4746 25.9502 -115.184c-2.72461 -32.1729 -8.46777 -64.0693 -15.6748 -95.6367
c5.54785 2.68945 11.126 5.3252 16.7314 7.89941c17.2686 7.92676 26.4443 -16.667 9.40234 -24.4941c-11.5283 -5.29102 -22.9268 -10.8467 -34.2178 -16.6016c-3.02637 -11.7129 -6.16406 -23.3838 -9.39355 -34.9893
c-26.0762 -93.7012 -61.6006 -185.767 -112.892 -268.705c-25.6436 -41.4678 -55.0879 -80.6787 -88.8965 -115.852zM276.979 511.123c31.207 32.1953 62.623 64.2402 96.2939 93.8838c4.18359 19.4023 6.11426 39.8926 -1.03125 57.8271
c-11.6709 29.291 -43.958 35.7236 -72.1455 32.333c-58.3643 -7.02344 -112.851 -44.6787 -156.219 -82.2959c-41.7549 -36.2227 -77.2227 -79.8203 -104.288 -127.993c-16.9238 -30.123 -82.6289 -169.655 -1.3877 -161.831
c26.5742 2.55957 52.4248 22.7393 73.8311 37.5742c19.9883 13.8584 39.0537 29.042 57.3789 45.0186c37.874 33.0195 72.625 69.4375 107.567 105.483zM212.507 -37.5938c38.5674 30.1797 72.0127 67.6309 101.361 106.692
c60.6396 80.7012 102.839 174.364 133.448 270.142c2.96973 9.29883 9.79688 32.2686 17.3906 61.6436c-77.3984 -42.5361 -148.46 -96.0342 -210.211 -159.509c-38.0615 -39.126 -72.7246 -81.7002 -102.698 -127.34
c-29.8701 -45.4863 -64.6514 -103.931 -62.9424 -160.349c2.1416 -70.6973 98.0996 -11.2725 123.651 8.71973z" />
    <glyph glyph-name="H" unicode="H" horiz-adv-x="525" 
d="M111.552 -226.918c0.161133 72.7275 15.4189 145.124 28.2578 216.438c14.9385 82.9619 31.6436 165.602 49.9844 247.881c-15.958 -8.78516 -31.7666 -17.8389 -47.4102 -27.1719c-61.8662 -36.9004 -121.169 -78.0078 -177.518 -122.878
c-54.6172 -43.4902 -105.326 -89.6475 -147.081 -145.468c5.0957 1.16113 9.91992 3.0459 14.9541 5.61719c6.06934 3.09961 11.4912 -6.14551 5.40332 -9.45605c-10.7666 -5.85059 -20.6406 -8.88477 -32.9277 -9.45996
c-4.18359 -0.199219 -9.19141 3.56348 -6.31445 8.16895c38.7275 62 95.9111 111.514 152.08 157.253c75.7432 61.6816 157.379 116.168 243.206 162.873c8.70508 38.4717 17.7285 76.8701 27.1504 115.173c15.4365 62.7471 31.9043 125.215 49.5215 187.387
c16.8848 59.5859 34.2568 119.214 61.0312 175.252c4.74316 9.93066 22.0117 4.9043 17.0234 -6.31445c-28.9424 -65.084 -45.5703 -135.104 -63.3633 -203.847c-21.5781 -83.3828 -41.7773 -167.104 -60.3174 -251.199c20.4219 10.54 41.0459 20.6777 61.8887 30.3408
c57.0303 26.4443 115.861 51 177.436 64.6016c26.1494 107.904 54.7891 215.444 88.6973 321.038c-0.378906 -0.509766 -0.753906 -1.02344 -1.12891 -1.5332c-4.28711 -5.82715 -13.6621 0.0810547 -9.08008 6.45605l22.6318 31.5059
c3.21484 4.47461 12.3145 2.03027 10.8428 -4.02344c-28.2148 -116.072 -57.793 -231.696 -84.7354 -348.018c18.8389 3.17578 40.6553 4.09961 50.7969 -13.4141c12.2256 -21.1152 -5.37598 -42.4795 -20.0654 -56.2383
c-8.11914 -7.59766 -23.3223 1.69727 -14.2461 10.126c6.29883 5.84668 14 12.165 17.4141 20.3066c7.49414 17.8584 -6.87793 25.0117 -22.1309 23.9121c-5.20703 -0.375 -10.4482 -1.03027 -15.6934 -1.86133c-6.8125 -29.7354 -13.4941 -59.502 -19.8662 -89.3564
c-32.5781 -152.659 -60.4092 -306.199 -85.0332 -460.333c-2.83105 -17.7314 -33.8926 -16.1338 -30.8584 3.36426c24.0234 154.299 54.1807 307.716 89.2646 459.873c6.20312 26.9004 12.5176 53.8086 18.9658 80.7012
c-4.97363 -1.22559 -9.90039 -2.50488 -14.7471 -3.77734c-36.3564 -9.54004 -71.6514 -22.8154 -106.283 -37.333c-40.1992 -16.8506 -79.6631 -35.4404 -118.307 -55.5938c-7.17969 -33.0654 -14.1143 -66.1885 -20.7393 -99.376
c-12.3867 -62.0615 -23.8691 -124.307 -34.4365 -186.705c-10.6934 -63.126 -22.7432 -126.72 -23.3984 -190.923c-0.179688 -17.5479 -30.9111 -22.6133 -30.8691 -3.98926z" />
    <glyph glyph-name="I" unicode="I" horiz-adv-x="273" 
d="M231.098 517.744c-31.4521 -127.115 -60.5723 -254.817 -86.6641 -383.143c-12.5781 -61.8584 -23.9961 -123.881 -34.9502 -185.984c29.6816 7.70898 59.8232 13.502 90.4326 16.6094c14.5059 1.47461 14.9883 -18.7666 1.25684 -19.9775
c-32.2988 -2.85059 -64 -8.7207 -95.2256 -16.751c-10.7354 -61.418 -21.084 -122.904 -31.6582 -184.391c-2.99219 -17.4023 -33.0117 -15.8389 -30.2803 3.30273c8.19922 57.4365 18.2412 114.655 28.8154 171.731c-6.65918 -2.04199 -13.3027 -4.15332 -19.9199 -6.36426
c-47.126 -15.7393 -92.1797 -36.958 -139.146 -52.9082c-7.0498 -2.39062 -13.6553 7 -6.2334 10.9121c45.1299 23.7744 94.1797 43.085 142.349 59.752c8.84668 3.06152 17.7549 5.92773 26.6895 8.69043c1.94629 10.3867 3.90039 20.7656 5.8623 31.1406
c43.8701 231.869 98.4062 461.336 163.191 688.171c-12.1758 -4.55957 -24.2793 -9.31055 -36.249 -14.3838c-31.5439 -13.3604 -62.3711 -28.4023 -92.5166 -44.6709c-26.6709 -14.3906 -53.1494 -29.2676 -74.8164 -50.6201
c6.79297 -2.30664 3.58594 -12.4521 -3.44824 -11.0195c-5.9502 1.21484 -7.16895 1.57129 -10.874 6.44141c-1.57129 2.06934 -1.30273 5.06152 0.463867 6.94238c25.4824 27.1416 58.2178 44.877 90.7656 62.1719c32.2949 17.1611 65.2871 33.0273 99.1572 46.8477
c10.4102 4.24512 20.9121 8.27539 31.4795 12.1182c6.33301 22.0264 12.7275 44.0342 19.2559 66.0107c3.21094 10.8008 23.0156 10.0039 19.6475 -2.1416c-5.1377 -18.5283 -10.2139 -37.0801 -15.2256 -55.6475c17.1494 5.65527 34.4863 10.7393 52.0039 15.1533
c24.2832 6.11914 59.2256 19.1924 81.0029 0.242188c6.1875 -5.38672 -2.98535 -14.5127 -8.59863 -9.62402c-12.8584 11.207 -29.5059 7.0498 -44.582 3.92383c-17.5674 -3.64746 -34.958 -8.12598 -52.1729 -13.1719
c-10.4941 -3.07324 -20.8887 -6.45996 -31.2412 -9.97754c-13.3223 -49.6738 -26.2188 -99.459 -38.5713 -149.386z" />
    <glyph glyph-name="I" unicode="&#xcf;" horiz-adv-x="273" 
d="M231.098 517.744c-31.4521 -127.115 -60.5723 -254.817 -86.6641 -383.143c-12.5781 -61.8584 -23.9961 -123.881 -34.9502 -185.984c29.6816 7.70898 59.8232 13.502 90.4326 16.6094c14.5059 1.47461 14.9883 -18.7666 1.25684 -19.9775
c-32.2988 -2.85059 -64 -8.7207 -95.2256 -16.751c-10.7354 -61.418 -21.084 -122.904 -31.6582 -184.391c-2.99219 -17.4023 -33.0117 -15.8389 -30.2803 3.30273c8.19922 57.4365 18.2412 114.655 28.8154 171.731c-6.65918 -2.04199 -13.3027 -4.15332 -19.9199 -6.36426
c-47.126 -15.7393 -92.1797 -36.958 -139.146 -52.9082c-7.0498 -2.39062 -13.6553 7 -6.2334 10.9121c45.1299 23.7744 94.1797 43.085 142.349 59.752c8.84668 3.06152 17.7549 5.92773 26.6895 8.69043c1.94629 10.3867 3.90039 20.7656 5.8623 31.1406
c43.8701 231.869 98.4062 461.336 163.191 688.171c-12.1758 -4.55957 -24.2793 -9.31055 -36.249 -14.3838c-31.5439 -13.3604 -62.3711 -28.4023 -92.5166 -44.6709c-26.6709 -14.3906 -53.1494 -29.2676 -74.8164 -50.6201
c6.79297 -2.30664 3.58594 -12.4521 -3.44824 -11.0195c-5.9502 1.21484 -7.16895 1.57129 -10.874 6.44141c-1.57129 2.06934 -1.30273 5.06152 0.463867 6.94238c25.4824 27.1416 58.2178 44.877 90.7656 62.1719c32.2949 17.1611 65.2871 33.0273 99.1572 46.8477
c10.4102 4.24512 20.9121 8.27539 31.4795 12.1182c6.33301 22.0264 12.7275 44.0342 19.2559 66.0107c3.21094 10.8008 23.0156 10.0039 19.6475 -2.1416c-5.1377 -18.5283 -10.2139 -37.0801 -15.2256 -55.6475c17.1494 5.65527 34.4863 10.7393 52.0039 15.1533
c24.2832 6.11914 59.2256 19.1924 81.0029 0.242188c6.1875 -5.38672 -2.98535 -14.5127 -8.59863 -9.62402c-12.8584 11.207 -29.5059 7.0498 -44.582 3.92383c-17.5674 -3.64746 -34.958 -8.12598 -52.1729 -13.1719
c-10.4941 -3.07324 -20.8887 -6.45996 -31.2412 -9.97754c-13.3223 -49.6738 -26.2188 -99.459 -38.5713 -149.386z" />
    <glyph glyph-name="I" unicode="&#xce;" horiz-adv-x="273" 
d="M231.098 517.744c-31.4521 -127.115 -60.5723 -254.817 -86.6641 -383.143c-12.5781 -61.8584 -23.9961 -123.881 -34.9502 -185.984c29.6816 7.70898 59.8232 13.502 90.4326 16.6094c14.5059 1.47461 14.9883 -18.7666 1.25684 -19.9775
c-32.2988 -2.85059 -64 -8.7207 -95.2256 -16.751c-10.7354 -61.418 -21.084 -122.904 -31.6582 -184.391c-2.99219 -17.4023 -33.0117 -15.8389 -30.2803 3.30273c8.19922 57.4365 18.2412 114.655 28.8154 171.731c-6.65918 -2.04199 -13.3027 -4.15332 -19.9199 -6.36426
c-47.126 -15.7393 -92.1797 -36.958 -139.146 -52.9082c-7.0498 -2.39062 -13.6553 7 -6.2334 10.9121c45.1299 23.7744 94.1797 43.085 142.349 59.752c8.84668 3.06152 17.7549 5.92773 26.6895 8.69043c1.94629 10.3867 3.90039 20.7656 5.8623 31.1406
c43.8701 231.869 98.4062 461.336 163.191 688.171c-12.1758 -4.55957 -24.2793 -9.31055 -36.249 -14.3838c-31.5439 -13.3604 -62.3711 -28.4023 -92.5166 -44.6709c-26.6709 -14.3906 -53.1494 -29.2676 -74.8164 -50.6201
c6.79297 -2.30664 3.58594 -12.4521 -3.44824 -11.0195c-5.9502 1.21484 -7.16895 1.57129 -10.874 6.44141c-1.57129 2.06934 -1.30273 5.06152 0.463867 6.94238c25.4824 27.1416 58.2178 44.877 90.7656 62.1719c32.2949 17.1611 65.2871 33.0273 99.1572 46.8477
c10.4102 4.24512 20.9121 8.27539 31.4795 12.1182c6.33301 22.0264 12.7275 44.0342 19.2559 66.0107c3.21094 10.8008 23.0156 10.0039 19.6475 -2.1416c-5.1377 -18.5283 -10.2139 -37.0801 -15.2256 -55.6475c17.1494 5.65527 34.4863 10.7393 52.0039 15.1533
c24.2832 6.11914 59.2256 19.1924 81.0029 0.242188c6.1875 -5.38672 -2.98535 -14.5127 -8.59863 -9.62402c-12.8584 11.207 -29.5059 7.0498 -44.582 3.92383c-17.5674 -3.64746 -34.958 -8.12598 -52.1729 -13.1719
c-10.4941 -3.07324 -20.8887 -6.45996 -31.2412 -9.97754c-13.3223 -49.6738 -26.2188 -99.459 -38.5713 -149.386z" />
    <glyph glyph-name="I" unicode="&#xcd;" horiz-adv-x="273" 
d="M231.098 517.744c-31.4521 -127.115 -60.5723 -254.817 -86.6641 -383.143c-12.5781 -61.8584 -23.9961 -123.881 -34.9502 -185.984c29.6816 7.70898 59.8232 13.502 90.4326 16.6094c14.5059 1.47461 14.9883 -18.7666 1.25684 -19.9775
c-32.2988 -2.85059 -64 -8.7207 -95.2256 -16.751c-10.7354 -61.418 -21.084 -122.904 -31.6582 -184.391c-2.99219 -17.4023 -33.0117 -15.8389 -30.2803 3.30273c8.19922 57.4365 18.2412 114.655 28.8154 171.731c-6.65918 -2.04199 -13.3027 -4.15332 -19.9199 -6.36426
c-47.126 -15.7393 -92.1797 -36.958 -139.146 -52.9082c-7.0498 -2.39062 -13.6553 7 -6.2334 10.9121c45.1299 23.7744 94.1797 43.085 142.349 59.752c8.84668 3.06152 17.7549 5.92773 26.6895 8.69043c1.94629 10.3867 3.90039 20.7656 5.8623 31.1406
c43.8701 231.869 98.4062 461.336 163.191 688.171c-12.1758 -4.55957 -24.2793 -9.31055 -36.249 -14.3838c-31.5439 -13.3604 -62.3711 -28.4023 -92.5166 -44.6709c-26.6709 -14.3906 -53.1494 -29.2676 -74.8164 -50.6201
c6.79297 -2.30664 3.58594 -12.4521 -3.44824 -11.0195c-5.9502 1.21484 -7.16895 1.57129 -10.874 6.44141c-1.57129 2.06934 -1.30273 5.06152 0.463867 6.94238c25.4824 27.1416 58.2178 44.877 90.7656 62.1719c32.2949 17.1611 65.2871 33.0273 99.1572 46.8477
c10.4102 4.24512 20.9121 8.27539 31.4795 12.1182c6.33301 22.0264 12.7275 44.0342 19.2559 66.0107c3.21094 10.8008 23.0156 10.0039 19.6475 -2.1416c-5.1377 -18.5283 -10.2139 -37.0801 -15.2256 -55.6475c17.1494 5.65527 34.4863 10.7393 52.0039 15.1533
c24.2832 6.11914 59.2256 19.1924 81.0029 0.242188c6.1875 -5.38672 -2.98535 -14.5127 -8.59863 -9.62402c-12.8584 11.207 -29.5059 7.0498 -44.582 3.92383c-17.5674 -3.64746 -34.958 -8.12598 -52.1729 -13.1719
c-10.4941 -3.07324 -20.8887 -6.45996 -31.2412 -9.97754c-13.3223 -49.6738 -26.2188 -99.459 -38.5713 -149.386z" />
    <glyph glyph-name="J" unicode="J" horiz-adv-x="534" 
d="M486.428 578.967c-16.2373 -100.321 -35.0371 -200.224 -59.3857 -298.897c-9.06543 -36.7393 -18.7393 -73.6777 -29.4062 -110.413c19.7207 13.084 39.709 25.5703 59.9346 37.3672c9.60547 5.60547 20.1807 -5.77344 10.25 -12.9307
c-26.3223 -18.9805 -53.0391 -37.2988 -79.5674 -55.8926c-24.084 -78.0537 -53.3984 -154.647 -92.2686 -225.835c-28.6777 -52.5176 -63.3984 -104.165 -107.567 -144.962c-35.2334 -32.5479 -92.9268 -70.9766 -143.938 -57.459
c-56.7314 15.0342 -25.502 89.4062 -6.08789 122.165c31.4678 53.0957 77.5557 98.9502 121.276 141.98c61.2754 60.3145 128.437 118.303 199.602 169.13c44.6016 138.257 73.6514 281.345 99.5635 424.605c-61.9619 -25.7314 -122.165 -55.582 -180.502 -88.7012
c-61.9463 -35.1689 -121.923 -73.7471 -180.152 -114.763c-27.7275 -19.5322 -55.2793 -39.4131 -81.9844 -60.3291c-15.4141 -12.0732 -30.4561 -24.6094 -44.8311 -37.9082c-6.65527 -6.15723 -13.1572 -12.4717 -19.46 -18.9854
c-3.13379 -3.2793 -6.24121 -6.58203 -9.31738 -9.91113c3.17285 -6.73535 6.74805 -7.67773 10.7217 -2.81543c6.625 4.59375 14.2031 -4.19922 7.27246 -9.17969c-8.53613 -6.13379 -19.7549 -12 -30.1416 -6.17969c-8.6748 4.8623 -8.8623 13.9883 -4.58691 22.1299
c7.77734 14.8086 24.4053 28.2305 36.4395 39.5449c13.7852 12.9541 28.3408 25.1113 43.1416 36.8857c115.279 91.7051 241.291 172.801 373.946 236.95c27.5098 13.3066 55.502 26.0234 83.877 37.8662c9.03809 50.5635 17.7773 101.115 26.7617 151.448
c2.14551 12.0117 22.8008 10.9424 20.9199 -2.28027c-6.55957 -46.0996 -13.3408 -92.1953 -20.6016 -138.222c32.123 12.5859 64.7129 23.915 97.7393 33.2979c28.7549 8.16895 69.7246 21.1768 99.0498 9.60938c20.9385 -8.26074 26.8848 -34.0811 8.04199 -48.0078
c-12.5244 -9.25684 -27.2793 8.01172 -14.0186 17.6895c12.0957 8.82715 -24.6055 11.2021 -25.9277 11.1328c-9.40625 -0.482422 -18.793 -1.74316 -28.0654 -3.36816c-19.9268 -3.49023 -39.3252 -9.27148 -58.5625 -15.4248
c-27.7012 -8.8623 -55.084 -18.7207 -82.1641 -29.3379zM316 23.6094c11.5098 28.3867 22.1602 57.0508 32.0801 85.9473c-12.9766 -9.46777 -25.8389 -19.1191 -38.5098 -29.0654c-52.0723 -40.8848 -101.896 -84.6514 -148.344 -131.854
c-39.2256 -39.8662 -81.375 -82.4404 -107.923 -132.134c-10.0459 -18.8047 -32.6631 -64.7129 -8.49414 -80.7471c21.2148 -14.0732 60.8125 5.36328 79.9004 16.7236c48.1494 28.6592 85.1953 75.9883 115.379 122.279c30.4863 46.7549 54.9648 97.1914 75.9111 148.851z
" />
    <glyph glyph-name="K" unicode="K" horiz-adv-x="538" 
d="M465.047 102.335c-13.4062 1.73535 -7.99316 20.1934 4.14062 18.5615c3.75488 4.50977 2.19531 8.82422 -4.68555 12.9395c-2.59375 0.575195 -5.1875 1.15332 -7.78125 1.73145c-6.80469 0.834961 -14.3643 -0.230469 -21.1533 -0.790039
c-12.46 -1.02637 -24.9082 -2.21387 -37.3447 -3.47461c-27.3643 -2.77051 -54.6787 -6.00391 -81.9512 -9.55176c-53.1152 -6.9082 -106.031 -15.1689 -158.943 -23.46c-20.4521 -100.088 -37.7852 -200.705 -49.5439 -302.402
c-2.16113 -18.7207 -34.5557 -16.9697 -32.3604 3.52441c10.5781 98.751 28.3984 196.628 49.5361 293.754c-11.5674 -1.87012 -23.1846 -3.82031 -34.8018 -5.91992c-68.7129 -51.1758 -145.686 -89.7734 -233.022 -96.9033
c-11.0117 -0.900391 -14.8701 10.793 -6.70898 17.4785c63.6777 52.1758 140.333 77.5049 219.689 93.6543c1.19141 0.888672 2.39844 1.75488 3.58594 2.64746c22.6475 17.1113 44.5977 35.2646 65.9268 54.2383c7.39062 31.8926 15.0342 63.709 22.8232 95.4482
c18.1494 73.9502 37.042 147.713 55.7168 221.529c19.2646 76.1533 35.1455 153.64 57.0264 229.072c2.33691 8.0498 15.6973 7.78516 14.5635 -1.58691c-9.35645 -77.4326 -29.3906 -154.279 -46.9043 -230.176c-17.084 -74.0459 -35.1074 -147.869 -52.207 -221.911
c-4.38672 -19.0039 -8.70508 -38.0195 -12.9385 -57.0459c73.2871 70.9229 138.904 151.007 198.996 231.734c44.0537 59.1758 80.8389 123.049 123.877 182.792c33.9844 47.1758 89.9844 101.148 153.425 80.7158c2.58984 -0.831055 3.63574 -3.42871 3.33301 -5.92676
c-1.08789 -9.02637 -4.63965 -14.3906 -12.3027 -19.2451c-6.26855 -3.96973 -13.4023 4.18359 -6.74316 8.5127c1.48633 2.3291 2.97266 4.66211 4.45508 6.99512c-83.8428 11.3291 -134.176 -92.2725 -170.44 -151.119
c-77.418 -125.628 -169.077 -242.612 -274.081 -346.375c-9.57129 -9.45605 -19.334 -18.8545 -29.2725 -28.1338c-2.63965 -12.249 -5.2373 -24.502 -7.79297 -36.7666c23.0459 3.37891 45.9961 6.55469 68.5977 9.94141c71.8125 10.7666 144.889 23.7012 217.524 27.0459
c16.7471 0.774414 39.9619 -2.31348 43.7432 -22.1904c3.06934 -16.1152 -9.48633 -31.4717 -25.9805 -29.3379zM-108.644 15.3105c50.3867 10.3643 97.126 31.9766 140.501 59.6699c-50.0996 -12.3906 -98.4248 -30.1914 -140.501 -59.6699zM119.896 110.528
c3.06934 0.501953 6.1377 1.00098 9.20312 1.4873c0.567383 2.54004 1.14551 5.07617 1.71289 7.62012c-3.61328 -3.06543 -7.25293 -6.09961 -10.916 -9.10742z" />
    <glyph glyph-name="L" unicode="L" horiz-adv-x="127" 
d="M217.684 -52.3623c13.8389 2.20703 14.1396 -17.0312 1.19727 -19.127c-112.146 -18.1914 -216.984 -62.4561 -325.076 -95.5176c-7.55566 -10.6016 -15.6094 -20.8506 -24.2725 -30.6357c-31.7734 -35.8848 -76.2373 -72.6777 -126.409 -74.4326
c-16.46 -0.578125 -46.1992 2.77051 -49.7734 23.3877c-3.47852 20.0732 24.4297 37.1768 38.3535 46.001c40.8662 25.9043 88.8701 36.042 134.974 48.9229c46.6973 64.873 75.8271 145.345 101.658 218.49c73.835 209.08 118.406 425.957 170.203 640.999
c2.0918 8.68164 16.2793 8.02246 15.2559 -1.66309c-14.9424 -141.67 -49.5898 -282.371 -86.375 -419.746c-31.4941 -117.64 -65.2217 -235.954 -115.743 -347.065c-12.0381 -26.4746 -25.1143 -52.7197 -40.3135 -77.6006c101.456 31.877 200.831 71.1562 306.321 87.9873
zM-231.567 -240.551c22.7471 8.44824 43.2178 25 60.2939 41.9199c5.73535 5.68555 11.1758 11.6621 16.4863 17.7656c-35.6318 -9.63184 -71.8271 -19.9385 -101.831 -41.2949c-8.26074 -5.88086 -32.0039 -20.6514 -10.5938 -23.6172
c12.165 -1.68945 24.2881 1.00781 35.6445 5.22656z" />
    <glyph glyph-name="M" unicode="M" horiz-adv-x="536" 
d="M361.053 597.158c5.17578 13.042 9.97656 26.3252 13.8691 39.8232c2.22559 7.71289 9.70801 22.7969 -7.08496 24.3682c-4.22949 0.394531 -13.8467 -8.45996 -17.1416 -10.8818c-83.4941 -61.3447 -140.996 -157.548 -193.647 -244.835
c-55.6738 -92.3066 -102.808 -189.177 -146.581 -287.591c-21.9307 -49.3027 -42.8232 -99.0654 -62.957 -149.127c-17.6318 -43.8467 -30.6582 -95.3984 -63.7656 -130.548c-9.35645 -9.93066 -32.0039 -6.44043 -28.2793 10.4863
c58.5938 266.207 133.1 530.873 223.893 787.892c3.64355 10.3105 23.1533 10.0352 19.5322 -2.12988c-66.6172 -223.896 -128.269 -448.532 -183.954 -675.18c9.07324 21.3291 18.2148 42.6318 27.502 63.873c26.3486 60.2686 53.9268 120.012 83.6582 178.689
c52.9727 104.548 110.754 206.942 177.517 303.371c15.2832 22.0762 154.367 213.808 187.344 162.724c10.2188 -15.8311 -6.6582 -46.9844 -12.1943 -61.8965c-10.958 -29.502 -21.5479 -59.126 -31.9658 -88.8232c-20.4902 -58.4102 -40.666 -116.938 -60.5928 -175.544
c-27.0195 -79.46 -54.8281 -159.115 -75.2148 -240.575c29.8203 55.5742 61.3721 110.218 96.4297 162.646c46.0537 68.873 98.3525 139.728 164.329 190.893c16.1533 12.5244 70.7891 55.3555 85.6855 19.8379c6.54785 -15.6133 -3.84668 -39.1035 -8.375 -53.7393
c-6.52148 -21.0801 -14.4297 -41.6543 -22.4717 -62.1865c-34.8809 -89.0615 -65.4521 -179.617 -91.2988 -271.717c-26.3408 -93.8701 -56.1533 -192.908 -51.5713 -291.326c0.820312 -17.624 -29.8848 -22.6318 -30.8691 -3.98828
c-5.1377 97.4248 24.4941 195.176 50.9502 287.931c23.5742 82.6514 51.2559 164.146 82.3818 244.253c15.3564 39.5176 33.751 78.54 43.4219 119.973c1.10352 4.7207 6.44434 16.8047 -2.60938 17.5596c-2.00391 0.168945 -10.6396 -5.88867 -13.5518 -7.68164
c-8.1875 -5.04199 -16.0117 -10.666 -23.5635 -16.6162c-15.0879 -11.8848 -28.7812 -25.375 -41.957 -39.3174c-112.13 -118.64 -185.237 -264.877 -260.088 -408.226c-7.52148 -14.4062 -33.4336 -11.1875 -30.4639 7.13086
c19.9805 123.253 63.3135 241.395 107.134 357.827c20.165 53.5742 40.8662 106.919 62.4482 159.938c11.2412 27.6133 23.1074 55.0039 34.1035 82.7129z" />
    <glyph glyph-name="N" unicode="N" horiz-adv-x="338" 
d="M-71.0801 -171.753c-5.93848 -7.75879 -17.5771 -6.84473 -23.8027 -0.541992c-20.0342 20.2686 -11.5664 57.8281 -9.66992 83.3066c2.64746 35.5244 7.19531 70.8613 12.9082 106.019c11.4639 70.5557 27.6973 140.211 44.8701 209.563
c35.3604 142.812 76.4902 283.928 122.915 423.529c3.58203 10.7666 23.7119 10.1387 19.9951 -2.17969c-40.1572 -133.126 -76.4941 -267.521 -109.08 -402.7c-16.1689 -67.0801 -31.7822 -134.409 -43.6406 -202.405
c-5.9082 -33.8809 -10.8242 -67.9307 -14.3301 -102.146c-1.87695 -18.3252 -3.50195 -36.6777 -4.53613 -55.0723c-0.260742 -4.60547 -0.850586 -9.69727 -1.0957 -14.8232c10.7705 20.502 18.0039 42.9121 26.2793 64.6592
c11.751 30.877 23.3682 61.8037 35.1729 92.6582c23.624 61.7432 47.9844 123.261 74.7012 183.739c46.249 104.682 100.422 206.391 169.9 297.655c33.0156 43.3682 69.2607 89.5938 118.533 115.249c15.123 7.87012 37.5791 14.7441 48.2568 -3.49707
c11.0801 -18.9268 1.24121 -50.957 -3.60938 -70.4316c-15.6133 -62.6709 -39.8857 -123.651 -59.0615 -185.325c-19.3066 -62.0879 -37.502 -124.556 -53.7432 -187.518c-16.2412 -62.9658 -30.8389 -126.353 -42.7158 -190.291
c-12.3447 -66.4561 -24.3369 -134.241 -12.1143 -201.609c2.90039 -15.9961 -25.4219 -20.582 -28.5137 -3.68555c-12.4824 68.1836 -0.616211 137.425 11.6748 204.758c12.3369 67.582 27.5205 134.651 45.1719 201.042c15.7891 59.3789 33.3105 118.268 52.2266 176.724
c18.6592 57.6709 40.4678 114.299 59.0391 171.97c4.54785 14.126 8.57422 28.4707 11.1143 43.1104c2.40234 13.8506 7.63184 36.0342 -13.9199 30.2676c-12.7207 -3.40625 -26.7129 -15.8008 -36.6865 -24.0654c-11.4141 -9.46387 -21.874 -19.9961 -31.8398 -30.9619
c-37.2334 -40.9727 -69.873 -86.5283 -99.4287 -133.264c-58.5244 -92.5479 -104.704 -192.49 -145.401 -293.965c-20.9658 -52.2754 -40.5479 -105.103 -59.9229 -157.979c-16.9805 -46.3486 -29.2715 -102.092 -59.6465 -141.789z" />
    <glyph glyph-name="O" unicode="O" horiz-adv-x="348" 
d="M-72.9922 -163.336c-29.0654 27.0654 -25.959 68.9365 -19.9746 104.707c18.3369 109.602 67.417 210.318 129.13 302.613c-34.6211 21.2334 -52.0889 62.2871 -54.1006 101.659c-4.55566 89.0693 54.2676 181.839 113.995 243.413
c46.6279 48.0732 122.977 111.368 195.003 82.2949c74.709 -30.1572 88.583 -133.682 85.3418 -203.199c-3.91211 -83.873 -26.8662 -167.777 -56.4102 -246.011c-30.2871 -80.207 -71.1494 -156.058 -121.076 -225.731
c-45.4824 -63.4717 -99.0186 -128.096 -171.337 -161.644c-31.2568 -14.498 -72.4639 -24.2754 -100.571 1.89746zM-65.4531 -51.8984c-5.87695 -31.3682 -15.4297 -86.0605 23.2412 -101.493c32.3643 -12.9082 75.3027 14.8623 100.605 32.8662
c57.7236 41.0732 102.999 101.575 141.666 160.139c78.3867 118.717 134.54 258.135 150.693 400.054c7.48242 65.7588 6.06836 166.376 -57.0039 207.33c-65.207 42.3369 -146.731 -30.8467 -188.697 -75.751c-48.0801 -51.4443 -91.0723 -119.904 -101.938 -190.556
c-5.74316 -37.333 0.172852 -77.0645 24.6016 -107.011c5.11914 -6.27246 11.0811 -11.7012 17.5674 -16.2529c29.9766 43.5938 62.6201 85.2754 95.9805 125.106c10.9199 13.0342 33.3301 -0.800781 21.4561 -15.249c-32.2188 -39.207 -63.9541 -79.6357 -93.2334 -121.686
c19.7432 -5.91992 41.3447 -4.18066 60.0537 7.93066c6.60938 4.2793 14.1455 -4.36426 7.1416 -9.01172c-22.3447 -14.8271 -50.2715 -18.2637 -75.7002 -11.2832c-59.0156 -86.877 -106.874 -180.75 -126.434 -285.133z" />
    <glyph glyph-name="O" unicode="&#xd6;" horiz-adv-x="348" 
d="M-72.9922 -163.336c-29.0654 27.0654 -25.959 68.9365 -19.9746 104.707c18.3369 109.602 67.417 210.318 129.13 302.613c-34.6211 21.2334 -52.0889 62.2871 -54.1006 101.659c-4.55566 89.0693 54.2676 181.839 113.995 243.413
c46.6279 48.0732 122.977 111.368 195.003 82.2949c74.709 -30.1572 88.583 -133.682 85.3418 -203.199c-3.91211 -83.873 -26.8662 -167.777 -56.4102 -246.011c-30.2871 -80.207 -71.1494 -156.058 -121.076 -225.731
c-45.4824 -63.4717 -99.0186 -128.096 -171.337 -161.644c-31.2568 -14.498 -72.4639 -24.2754 -100.571 1.89746zM-65.4531 -51.8984c-5.87695 -31.3682 -15.4297 -86.0605 23.2412 -101.493c32.3643 -12.9082 75.3027 14.8623 100.605 32.8662
c57.7236 41.0732 102.999 101.575 141.666 160.139c78.3867 118.717 134.54 258.135 150.693 400.054c7.48242 65.7588 6.06836 166.376 -57.0039 207.33c-65.207 42.3369 -146.731 -30.8467 -188.697 -75.751c-48.0801 -51.4443 -91.0723 -119.904 -101.938 -190.556
c-5.74316 -37.333 0.172852 -77.0645 24.6016 -107.011c5.11914 -6.27246 11.0811 -11.7012 17.5674 -16.2529c29.9766 43.5938 62.6201 85.2754 95.9805 125.106c10.9199 13.0342 33.3301 -0.800781 21.4561 -15.249c-32.2188 -39.207 -63.9541 -79.6357 -93.2334 -121.686
c19.7432 -5.91992 41.3447 -4.18066 60.0537 7.93066c6.60938 4.2793 14.1455 -4.36426 7.1416 -9.01172c-22.3447 -14.8271 -50.2715 -18.2637 -75.7002 -11.2832c-59.0156 -86.877 -106.874 -180.75 -126.434 -285.133z" />
    <glyph glyph-name="O" unicode="&#xd5;" horiz-adv-x="348" 
d="M-72.9922 -163.336c-29.0654 27.0654 -25.959 68.9365 -19.9746 104.707c18.3369 109.602 67.417 210.318 129.13 302.613c-34.6211 21.2334 -52.0889 62.2871 -54.1006 101.659c-4.55566 89.0693 54.2676 181.839 113.995 243.413
c46.6279 48.0732 122.977 111.368 195.003 82.2949c74.709 -30.1572 88.583 -133.682 85.3418 -203.199c-3.91211 -83.873 -26.8662 -167.777 -56.4102 -246.011c-30.2871 -80.207 -71.1494 -156.058 -121.076 -225.731
c-45.4824 -63.4717 -99.0186 -128.096 -171.337 -161.644c-31.2568 -14.498 -72.4639 -24.2754 -100.571 1.89746zM-65.4531 -51.8984c-5.87695 -31.3682 -15.4297 -86.0605 23.2412 -101.493c32.3643 -12.9082 75.3027 14.8623 100.605 32.8662
c57.7236 41.0732 102.999 101.575 141.666 160.139c78.3867 118.717 134.54 258.135 150.693 400.054c7.48242 65.7588 6.06836 166.376 -57.0039 207.33c-65.207 42.3369 -146.731 -30.8467 -188.697 -75.751c-48.0801 -51.4443 -91.0723 -119.904 -101.938 -190.556
c-5.74316 -37.333 0.172852 -77.0645 24.6016 -107.011c5.11914 -6.27246 11.0811 -11.7012 17.5674 -16.2529c29.9766 43.5938 62.6201 85.2754 95.9805 125.106c10.9199 13.0342 33.3301 -0.800781 21.4561 -15.249c-32.2188 -39.207 -63.9541 -79.6357 -93.2334 -121.686
c19.7432 -5.91992 41.3447 -4.18066 60.0537 7.93066c6.60938 4.2793 14.1455 -4.36426 7.1416 -9.01172c-22.3447 -14.8271 -50.2715 -18.2637 -75.7002 -11.2832c-59.0156 -86.877 -106.874 -180.75 -126.434 -285.133z" />
    <glyph glyph-name="O" unicode="&#xd4;" horiz-adv-x="348" 
d="M-72.9922 -163.336c-29.0654 27.0654 -25.959 68.9365 -19.9746 104.707c18.3369 109.602 67.417 210.318 129.13 302.613c-34.6211 21.2334 -52.0889 62.2871 -54.1006 101.659c-4.55566 89.0693 54.2676 181.839 113.995 243.413
c46.6279 48.0732 122.977 111.368 195.003 82.2949c74.709 -30.1572 88.583 -133.682 85.3418 -203.199c-3.91211 -83.873 -26.8662 -167.777 -56.4102 -246.011c-30.2871 -80.207 -71.1494 -156.058 -121.076 -225.731
c-45.4824 -63.4717 -99.0186 -128.096 -171.337 -161.644c-31.2568 -14.498 -72.4639 -24.2754 -100.571 1.89746zM-65.4531 -51.8984c-5.87695 -31.3682 -15.4297 -86.0605 23.2412 -101.493c32.3643 -12.9082 75.3027 14.8623 100.605 32.8662
c57.7236 41.0732 102.999 101.575 141.666 160.139c78.3867 118.717 134.54 258.135 150.693 400.054c7.48242 65.7588 6.06836 166.376 -57.0039 207.33c-65.207 42.3369 -146.731 -30.8467 -188.697 -75.751c-48.0801 -51.4443 -91.0723 -119.904 -101.938 -190.556
c-5.74316 -37.333 0.172852 -77.0645 24.6016 -107.011c5.11914 -6.27246 11.0811 -11.7012 17.5674 -16.2529c29.9766 43.5938 62.6201 85.2754 95.9805 125.106c10.9199 13.0342 33.3301 -0.800781 21.4561 -15.249c-32.2188 -39.207 -63.9541 -79.6357 -93.2334 -121.686
c19.7432 -5.91992 41.3447 -4.18066 60.0537 7.93066c6.60938 4.2793 14.1455 -4.36426 7.1416 -9.01172c-22.3447 -14.8271 -50.2715 -18.2637 -75.7002 -11.2832c-59.0156 -86.877 -106.874 -180.75 -126.434 -285.133z" />
    <glyph glyph-name="O" unicode="&#xd3;" horiz-adv-x="348" 
d="M-72.9922 -163.336c-29.0654 27.0654 -25.959 68.9365 -19.9746 104.707c18.3369 109.602 67.417 210.318 129.13 302.613c-34.6211 21.2334 -52.0889 62.2871 -54.1006 101.659c-4.55566 89.0693 54.2676 181.839 113.995 243.413
c46.6279 48.0732 122.977 111.368 195.003 82.2949c74.709 -30.1572 88.583 -133.682 85.3418 -203.199c-3.91211 -83.873 -26.8662 -167.777 -56.4102 -246.011c-30.2871 -80.207 -71.1494 -156.058 -121.076 -225.731
c-45.4824 -63.4717 -99.0186 -128.096 -171.337 -161.644c-31.2568 -14.498 -72.4639 -24.2754 -100.571 1.89746zM-65.4531 -51.8984c-5.87695 -31.3682 -15.4297 -86.0605 23.2412 -101.493c32.3643 -12.9082 75.3027 14.8623 100.605 32.8662
c57.7236 41.0732 102.999 101.575 141.666 160.139c78.3867 118.717 134.54 258.135 150.693 400.054c7.48242 65.7588 6.06836 166.376 -57.0039 207.33c-65.207 42.3369 -146.731 -30.8467 -188.697 -75.751c-48.0801 -51.4443 -91.0723 -119.904 -101.938 -190.556
c-5.74316 -37.333 0.172852 -77.0645 24.6016 -107.011c5.11914 -6.27246 11.0811 -11.7012 17.5674 -16.2529c29.9766 43.5938 62.6201 85.2754 95.9805 125.106c10.9199 13.0342 33.3301 -0.800781 21.4561 -15.249c-32.2188 -39.207 -63.9541 -79.6357 -93.2334 -121.686
c19.7432 -5.91992 41.3447 -4.18066 60.0537 7.93066c6.60938 4.2793 14.1455 -4.36426 7.1416 -9.01172c-22.3447 -14.8271 -50.2715 -18.2637 -75.7002 -11.2832c-59.0156 -86.877 -106.874 -180.75 -126.434 -285.133z" />
    <glyph glyph-name="P" unicode="P" horiz-adv-x="442" 
d="M444.599 652.242c70.8467 -39.2031 72.8008 -130.263 48.6055 -197.88c-53.4023 -149.172 -167.613 -279.44 -292.521 -373.739c-34.7891 -26.2646 -78.3447 -56.3799 -124.261 -72.9121c-0.567383 -2.5752 -1.16504 -5.14258 -1.72461 -7.7168
c-14.9004 -68.3066 -25.7207 -137.241 -39.1924 -205.805c-1.92676 -9.79297 -21.1719 -11.6934 -20.54 -0.229492c3.74707 68.1689 13.8467 136.651 27.8662 204.418c-21.3447 -4.0918 -42.8584 -4.49414 -63.9346 0.529297
c-34.2793 8.16895 -60.2412 33.9814 -60.8662 70.3418c-0.643555 37.291 21.4219 72.9385 44.4258 100.64c41.0342 49.4141 96.3369 86.9385 156.95 108.199c36.4062 109.628 80.249 217.355 133.755 319.475c8.44824 16.1299 37.2109 8.00684 28.3369 -10.5107
c-46.7168 -97.4746 -89.3945 -196.333 -125.184 -298.042c25.9463 6.75488 63.2031 15.1113 80.3291 -8.75098c21.5859 -30.0732 -8.59766 -63.5332 -18.1455 -91.25c-3.03418 -8.80859 -19.6279 -8.22266 -16.4092 1.78906
c5.59375 17.4023 17.1953 32.2871 22.3867 49.6816c2.30664 7.73145 3.68164 17.7549 0.394531 25.5322c-6.01172 14.2256 -22.1875 14.6895 -35.1953 13.1035c-13.2832 -1.62109 -26.5205 -4.35254 -39.5664 -7.93066
c-8.17285 -23.8506 -15.9736 -47.8584 -23.334 -72.0498c-15.6934 -51.5742 -29.8164 -103.646 -42.2529 -156.106c6.11133 2.74707 12.0771 5.63574 17.8398 8.57031c58.5781 29.8311 111.708 73.3408 159.489 118.092c47.1992 44.207 90.1377 93.0381 126.908 146.279
c36.6094 53.0117 73.5098 113.038 88.8047 176.195c15.8926 65.6133 -5.35254 139.586 -78.249 155.881c-67.8584 15.1689 -140.605 -11.8613 -197.847 -47.0146c-57.2949 -35.1875 -107.705 -81.6816 -148.41 -135.126
c-20.6016 -27.0498 -38.7207 -56.1533 -52.498 -87.2832c-7.12988 -16.1074 -13.0879 -32.8701 -17.0303 -50.0537c-4.17969 -18.2188 -5.63574 -56.0117 23.7285 -50.5293c8.38672 1.56738 8.41309 -9.99219 0.727539 -11.582
c-40.3906 -8.34473 -48.6055 38.0732 -41.916 67.0312c10.4863 45.3789 32.6895 87.3174 59.1455 125.294c50.7168 72.7969 119.426 135.697 198.844 175.839c64.46 32.582 153.165 54.9004 220.54 17.6211zM1.5918 22.8232
c15.9697 -0.378906 32.2002 2.4541 48.0391 7.11328c13.4023 59.5713 29.5752 118.46 46.9043 175.95c5.30664 17.5938 10.7969 35.1572 16.4639 52.6787c-7.27246 -2.9502 -14.4453 -6.09961 -21.4414 -9.46387c-61.5215 -29.5742 -135.261 -87.2061 -149.434 -158.015
c-7.98047 -39.8623 20.5371 -67.3369 59.4678 -68.2637z" />
    <glyph glyph-name="Q" unicode="Q" horiz-adv-x="348" 
d="M198.915 -3.58887c-24.0957 -33.624 -50.4883 -67.5273 -80.6914 -97.0098c18.1533 -106.835 42.8125 -212.188 70.916 -317.509c3.16504 -11.8701 -16.3984 -19.7441 -20.2334 -7.76758c-32.0723 100.13 -53.8457 204.395 -67.8301 309.364
c-22.2646 -19.4365 -46.5752 -36.2373 -73.4912 -48.7236c-31.2568 -14.498 -72.4639 -24.2754 -100.571 1.89746c-29.0654 27.0654 -25.9658 68.9395 -19.9814 104.71c18.333 109.602 67.4131 210.318 129.126 302.613c-34.6211 21.2334 -52.0889 62.2871 -54.1006 101.659
c-4.55566 89.0693 54.2676 181.839 113.995 243.413c46.6279 48.0723 122.977 111.367 195.003 82.2939c74.709 -30.1572 88.583 -133.682 85.3418 -203.199c-3.9082 -83.873 -26.8623 -167.777 -56.4062 -246.011c-30.2871 -80.207 -71.1494 -156.058 -121.076 -225.731z
M96.8906 54.5732c4.375 -42.5859 10.0195 -84.833 16.6748 -126.845c32.7773 34.0996 61.0762 73.3945 86.4902 111.881c78.3867 118.717 134.54 258.135 150.693 400.054c7.48242 65.7588 6.06836 166.376 -57.0039 207.33
c-65.207 42.3369 -146.731 -30.8467 -188.697 -75.751c-48.0801 -51.4443 -91.0723 -119.904 -101.938 -190.556c-5.74316 -37.333 0.172852 -77.0645 24.6016 -107.011c5.11914 -6.27246 11.0811 -11.7012 17.5674 -16.2529
c29.9766 43.5938 62.6201 85.2754 95.9805 125.106c10.9199 13.0342 33.3301 -0.800781 21.4561 -15.249c-32.2188 -39.207 -63.9502 -79.6357 -93.2334 -121.686c19.7432 -5.91992 41.3447 -4.18066 60.0537 7.93066c6.60938 4.2793 14.1455 -4.36426 7.1416 -9.01172
c-22.3447 -14.8271 -50.2715 -18.2637 -75.7002 -11.2832c-59.0156 -86.877 -106.874 -180.75 -126.434 -285.133c-5.87695 -31.3643 -15.4287 -86.0576 23.2451 -101.482c32.3643 -12.9082 75.3027 14.8623 100.605 32.8662
c13.7129 9.75879 26.7012 20.6396 39.0879 32.3027c-5.64746 47.1035 -9.80859 94.2832 -12.6094 141.237c-0.410156 6.8584 11.2754 8.79297 12.0186 1.55176z" />
    <glyph glyph-name="R" unicode="R" horiz-adv-x="603" 
d="M369.713 244.61c-47.8232 -49.0264 -100.022 -97.5889 -157.437 -136.079c21.0264 -6.7207 41.7695 -14.6475 62.7236 -20.9121c83.375 -24.9268 169.827 -37.0605 255.781 -49.2441c14.6895 -2.08008 8.77734 -22.2178 -4.55176 -20.3555
c-74.8545 10.46 -149.835 21.0879 -223.218 39.5781c-37.5596 9.46387 -73.5791 23.1572 -110.702 33.9346c-1.55957 0.452148 -3.13379 0.876953 -4.70508 1.30957c-0.674805 -0.410156 -1.3418 -0.838867 -2.01953 -1.24121
c-19.5557 -11.6592 -40.6357 -23.3447 -62.7773 -30.7275c-13.9697 -42.7168 -26.8438 -85.8047 -38.6211 -129.161c-7.78906 -28.6816 -15.0879 -57.5088 -22.0146 -86.4092c-5.34863 -22.3184 -19.793 -57.1191 -0.279297 -76.1074
c5.46777 -5.32227 -4.01855 -12.7969 -9.45508 -10.5479c-23.0117 9.51367 -23.085 35.127 -19.959 56.6328c5.17578 35.6016 13.9424 71.0459 22.3828 105.992c10.7432 44.4746 22.8691 88.6895 36.2871 132.556c-1.35645 -0.141602 -2.70898 -0.302734 -4.07324 -0.394531
c-13.3369 -0.930664 -30.0605 0.866211 -34.5625 15.8857c-3.40625 11.3564 3.70508 23.3184 11.7627 30.832c12.6553 11.8008 30.249 18.0156 48.4941 20.6973c61.3525 180.759 145.134 354.54 248.674 514.13c9.9043 15.2646 39.8701 6.89648 28.7627 -10.667
c-37.2109 -58.8506 -72.498 -118.851 -105.069 -180.395c-54.8203 -103.578 -101.954 -211.191 -141.276 -321.586c5.03027 -0.210938 9.93066 -0.597656 14.5703 -1.15723c5.32227 -0.643555 10.6016 -1.51758 15.8506 -2.55176
c25.3066 15.7012 49.1992 33.5898 72.3564 52.291c50.7012 40.9385 97.9307 86.126 141.337 134.728c42.249 47.3027 83.0654 97.6934 114.874 152.713c29.4717 50.9805 59.1611 118.007 37.793 177.332c-25.0996 69.6777 -107.479 81.8311 -171.7 74.3984
c-57.9961 -6.7168 -114.245 -25.6055 -165.287 -53.8389c-50.4941 -27.9307 -95.6201 -64.8574 -132.574 -109.198c-20.3066 -24.3643 -39.2646 -50.874 -51.5869 -80.2607c-6.93066 -16.5244 -11.9463 -34.2637 -12.5205 -52.2754
c-0.582031 -18.2871 5.41406 -46.6055 30.3184 -41.1377c8.77344 1.92676 8.81152 -10.3682 0.769531 -12.2188c-34.9199 -8.03418 -48.6748 29.7168 -47.2109 57.7051c2.0498 39.2646 20.6094 75.2227 43.0459 106.671c44.4326 62.2871 105.594 113.176 173.406 148.218
c61.8164 31.9385 133.809 53.6855 203.774 54.0381c66.835 0.333008 138.566 -30.4219 156.222 -100.644c17.6055 -70.0156 -16.0186 -143.058 -52.3975 -201.203c-41.0234 -65.5674 -91.2568 -126.042 -145.188 -181.329zM80.3027 80.7109
c0.417969 -1.64746 10.0391 0.769531 20.4795 3.94238c1.20312 3.75488 2.44434 7.49805 3.66992 11.2451c-0.0078125 -0.00390625 -0.015625 -0.0078125 -0.0234375 -0.0078125c-3.89648 -1.26855 -25.7236 -8.85449 -24.126 -15.1797zM135.023 97.1318
c2.38281 1.10742 4.74414 2.25684 7.09668 3.42578c-1.96973 0.0732422 -3.93945 0.0927734 -5.90918 0.0771484c-0.402344 -1.16504 -0.785156 -2.33789 -1.1875 -3.50293z" />
    <glyph glyph-name="S" unicode="S" horiz-adv-x="421" 
d="M380.244 324.779c-8.12598 -14.1758 -34.501 -6.78223 -25.5742 9.49023c48.249 88.0195 98.4404 175.847 132.735 270.521c5.89258 16.2646 12.2451 34.4062 10.1338 51.9922c-3.24512 27.0078 -27.2871 28.0957 -49.6855 24.9121
c-46.7705 -6.64355 -89.4102 -29.6094 -129.092 -54.0918c-67.8232 -41.8389 -130.662 -91.6621 -186.734 -148.294c-55.8701 -56.4287 -110.36 -120.632 -147.468 -191.229c-16.9619 -32.2725 -38.8818 -83.6553 -13.2305 -117.134
c23.6055 -30.8008 75.3408 -35.2373 110.536 -41.4404c69.5059 -12.2529 155.544 -17.4561 208.233 -70.6895c55.835 -56.4141 18.1611 -128.87 -29.1143 -176.031c-47.3408 -47.2256 -117.026 -91.7998 -186.513 -89.957
c-28.1338 0.74707 -54.9609 12.3984 -68.5586 38.1572c-15.2754 28.9346 -10.4404 64.9346 -1.89258 95.1074c10.0117 35.3369 25.8965 68.958 46.6279 99.2607c15.207 22.2334 39.1953 62.2568 70.1494 60.2568c8.55176 -0.551758 4.90039 -11.8584 -2.59375 -11.6172
c-20.8584 0.674805 -45.0811 -38.5166 -55.6553 -53.9492c-13.0615 -19.0615 -24.127 -39.4941 -32.9395 -60.8584c-15.1191 -36.667 -31.9619 -89.2988 -8.59766 -126.142c26.0342 -41.0537 84.5742 -27.8545 121.919 -13.5361
c42.084 16.1338 80.6738 42.8545 111.654 75.5176c27.6895 29.1914 53.9766 72.5518 39.1143 113.958c-11.6748 32.5215 -45.2988 51.4414 -76.0117 62.5986c-40.0234 14.5322 -83.1465 19.6553 -125.023 26.0303c-37.0117 5.63574 -77.376 10.3105 -111.633 26.3604
c-75.4141 35.3252 -57.6709 117.574 -24.625 178.13c36.5244 66.9385 87.3867 128.363 140.264 182.945c52.8701 54.582 111.697 103.59 175.134 145.433c32.1191 21.1875 65.418 41.4404 100.774 56.8008c32.7012 14.2031 74.3828 28.46 110.556 22.2842
c78.2412 -13.3564 32.1758 -114.651 14.1377 -157.54c-33.0654 -78.6172 -74.6631 -153.349 -117.027 -227.245z" />
    <glyph glyph-name="T" unicode="T" horiz-adv-x="514" 
d="M837.619 558.533c-8.50195 -7.65137 -24.4795 1.43555 -14.958 10.6309c27.4443 26.5244 17.4482 68.4824 -10.0342 90.6621c-31.1729 25.1572 -73.2803 25.9502 -111.346 23.0303c-51.3984 -3.94238 -102.08 -12.3447 -151.961 -24.3291
c1.03418 -1.38672 1.4209 -3.26758 0.540039 -5.52051c-54.751 -139.893 -107.763 -280.448 -163.088 -420.138c-55.333 -139.697 -111.662 -279.008 -167.604 -418.46c-5.49414 -13.6973 -31.3145 -9.58594 -27.5479 6.44824
c18.2725 77.793 41.1846 154.429 63.5371 231.118c19.3105 66.2529 38.165 132.763 51.3447 200.556c6.79688 34.9658 12.1074 70.2529 15.0576 105.759c2.75879 33.1992 7.13086 71.3027 -7.06055 102.586c-22.1533 48.8311 -73.1338 58.5205 -121.608 52.0186
c-71.3223 -40.0498 -139.974 -84.4062 -205.541 -130.062c-8.94238 -6.22949 -18.9463 3.11133 -12.7314 12.042c42.7891 61.4785 108.421 108.134 180.256 129.31c16.2188 4.77734 33.7861 8.14551 51.5107 9.3252c124.203 66.9082 255.621 121.625 394.288 149.816
c35.1377 7.1416 70.8086 12.7627 106.567 15.5977c33.6895 2.6748 68.7656 1.88574 99.6357 -13.4287c46.3682 -23.0039 75.2949 -86.8623 30.7432 -126.962zM29.5889 429.659c41.0117 25.4639 82.2637 50.5664 124.137 74.5547
c-5.48633 -1.68555 -10.8115 -3.5127 -15.8994 -5.45508c-40.9424 -15.624 -77.0879 -39.4326 -108.237 -69.0996zM363.277 241.586c57.1455 138.433 116.532 275.891 174.245 414.056c-106.283 -26.8164 -208.812 -69.9502 -306.589 -121.966
c37.6631 -2.16895 73.5596 -16.0195 96.0918 -49.2305c19.2031 -28.3027 20.8965 -63.4717 19.6396 -96.5449c-1.40625 -36.9883 -5.80078 -73.9229 -11.8701 -110.421c-15.5635 -93.5938 -43.54 -184.161 -69.4639 -275.227
c32.498 79.8428 65.0576 159.659 97.9463 239.333z" />
    <glyph glyph-name="U" unicode="U" horiz-adv-x="478" 
d="M399.106 171.2c-17.498 -56.9502 -33.0586 -114.512 -46.1816 -172.634c-14.0576 -62.2832 -25.1113 -125.011 -20.6631 -189.091c1.22559 -17.6855 -29.541 -22.6934 -30.9893 -4.00391c-5.50977 71.0879 9.47461 141.486 26.2949 210.157
c28.6475 116.977 66.9004 231.57 111.08 343.559c22.8047 57.8047 47.1875 114.984 72.5664 171.701c22.6973 50.7207 50.2295 101.02 64.3945 155.042c-13.3184 -7.61328 -26.9121 -26.6367 -35.0234 -35.376c-12.3828 -13.3447 -24.4561 -26.9766 -36.2451 -40.8535
c-23.5479 -27.7207 -45.9346 -56.4141 -67.4092 -85.7627c-43.3145 -59.1992 -82.7129 -121.138 -120.966 -183.689c-67.7549 -110.793 -132.161 -223.755 -206.448 -330.406c-18.5596 -26.6396 -37.2764 -53.5127 -58.8896 -77.7959
c-17.6094 -19.7891 -40.0576 -45.9121 -66.874 -52.5938c-66.9844 -16.6973 -47.3867 83.1953 -41.2793 116.46c24.0342 130.923 80.2949 253.13 133.088 374.379c27.0957 62.2334 53.6055 124.942 74.7129 189.51c10.0576 30.7627 28.2607 73.123 12.6895 104.694
c-10.9307 22.1611 -35.291 16.4141 -53.9004 8.49023c-3.43652 -1.46777 -52.3027 -31.9541 -39.6816 -36.2109c7.88086 -2.65918 2.48633 -13.916 -4.60938 -12.4902c-30.8809 6.19531 -4.52832 37.2148 8.45996 47.2412c22.123 17.0801 59.7666 36.4746 87.7744 22.9033
c28.5781 -13.8506 30.7119 -51.9883 26.6357 -79.3105c-5.79688 -38.873 -19.9199 -77.5508 -32.6553 -114.597c-46.418 -135.038 -112.444 -262.728 -153.896 -399.544c-10.1729 -33.582 -18.9736 -67.5781 -25.4717 -102.072
c-3.25684 -17.2871 -6.08398 -34.7197 -7.98438 -52.2139c-1.11914 -10.3027 -4.56738 -33.8008 7.0918 -39.9844c14.7705 -7.83105 42.8242 22.625 51.4375 31.0889c11.4326 11.2373 21.8926 23.4707 31.9307 35.957c22.3223 27.7666 42.6445 57.2842 62.6367 86.752
c78.1953 115.275 145.417 237.544 220.658 354.709c36.9121 57.4746 75.6094 113.942 118.023 167.521c21.2568 26.8506 43.4561 52.9658 66.7549 78.0732c17.2832 18.625 36.0342 45.9434 63.873 45.6748c4.85059 -0.0498047 8.41797 -5.1377 7.43359 -9.65527
c-13.9619 -63.9766 -45.4482 -123.188 -70.9541 -183.061c-47.751 -112.1 -91.6055 -226.054 -127.414 -342.567z" />
    <glyph glyph-name="U" unicode="&#xdc;" horiz-adv-x="478" 
d="M399.106 171.2c-17.498 -56.9502 -33.0586 -114.512 -46.1816 -172.634c-14.0576 -62.2832 -25.1113 -125.011 -20.6631 -189.091c1.22559 -17.6855 -29.541 -22.6934 -30.9893 -4.00391c-5.50977 71.0879 9.47461 141.486 26.2949 210.157
c28.6475 116.977 66.9004 231.57 111.08 343.559c22.8047 57.8047 47.1875 114.984 72.5664 171.701c22.6973 50.7207 50.2295 101.02 64.3945 155.042c-13.3184 -7.61328 -26.9121 -26.6367 -35.0234 -35.376c-12.3828 -13.3447 -24.4561 -26.9766 -36.2451 -40.8535
c-23.5479 -27.7207 -45.9346 -56.4141 -67.4092 -85.7627c-43.3145 -59.1992 -82.7129 -121.138 -120.966 -183.689c-67.7549 -110.793 -132.161 -223.755 -206.448 -330.406c-18.5596 -26.6396 -37.2764 -53.5127 -58.8896 -77.7959
c-17.6094 -19.7891 -40.0576 -45.9121 -66.874 -52.5938c-66.9844 -16.6973 -47.3867 83.1953 -41.2793 116.46c24.0342 130.923 80.2949 253.13 133.088 374.379c27.0957 62.2334 53.6055 124.942 74.7129 189.51c10.0576 30.7627 28.2607 73.123 12.6895 104.694
c-10.9307 22.1611 -35.291 16.4141 -53.9004 8.49023c-3.43652 -1.46777 -52.3027 -31.9541 -39.6816 -36.2109c7.88086 -2.65918 2.48633 -13.916 -4.60938 -12.4902c-30.8809 6.19531 -4.52832 37.2148 8.45996 47.2412c22.123 17.0801 59.7666 36.4746 87.7744 22.9033
c28.5781 -13.8506 30.7119 -51.9883 26.6357 -79.3105c-5.79688 -38.873 -19.9199 -77.5508 -32.6553 -114.597c-46.418 -135.038 -112.444 -262.728 -153.896 -399.544c-10.1729 -33.582 -18.9736 -67.5781 -25.4717 -102.072
c-3.25684 -17.2871 -6.08398 -34.7197 -7.98438 -52.2139c-1.11914 -10.3027 -4.56738 -33.8008 7.0918 -39.9844c14.7705 -7.83105 42.8242 22.625 51.4375 31.0889c11.4326 11.2373 21.8926 23.4707 31.9307 35.957c22.3223 27.7666 42.6445 57.2842 62.6367 86.752
c78.1953 115.275 145.417 237.544 220.658 354.709c36.9121 57.4746 75.6094 113.942 118.023 167.521c21.2568 26.8506 43.4561 52.9658 66.7549 78.0732c17.2832 18.625 36.0342 45.9434 63.873 45.6748c4.85059 -0.0498047 8.41797 -5.1377 7.43359 -9.65527
c-13.9619 -63.9766 -45.4482 -123.188 -70.9541 -183.061c-47.751 -112.1 -91.6055 -226.054 -127.414 -342.567z" />
    <glyph glyph-name="U" unicode="&#xdb;" horiz-adv-x="478" 
d="M399.106 171.2c-17.498 -56.9502 -33.0586 -114.512 -46.1816 -172.634c-14.0576 -62.2832 -25.1113 -125.011 -20.6631 -189.091c1.22559 -17.6855 -29.541 -22.6934 -30.9893 -4.00391c-5.50977 71.0879 9.47461 141.486 26.2949 210.157
c28.6475 116.977 66.9004 231.57 111.08 343.559c22.8047 57.8047 47.1875 114.984 72.5664 171.701c22.6973 50.7207 50.2295 101.02 64.3945 155.042c-13.3184 -7.61328 -26.9121 -26.6367 -35.0234 -35.376c-12.3828 -13.3447 -24.4561 -26.9766 -36.2451 -40.8535
c-23.5479 -27.7207 -45.9346 -56.4141 -67.4092 -85.7627c-43.3145 -59.1992 -82.7129 -121.138 -120.966 -183.689c-67.7549 -110.793 -132.161 -223.755 -206.448 -330.406c-18.5596 -26.6396 -37.2764 -53.5127 -58.8896 -77.7959
c-17.6094 -19.7891 -40.0576 -45.9121 -66.874 -52.5938c-66.9844 -16.6973 -47.3867 83.1953 -41.2793 116.46c24.0342 130.923 80.2949 253.13 133.088 374.379c27.0957 62.2334 53.6055 124.942 74.7129 189.51c10.0576 30.7627 28.2607 73.123 12.6895 104.694
c-10.9307 22.1611 -35.291 16.4141 -53.9004 8.49023c-3.43652 -1.46777 -52.3027 -31.9541 -39.6816 -36.2109c7.88086 -2.65918 2.48633 -13.916 -4.60938 -12.4902c-30.8809 6.19531 -4.52832 37.2148 8.45996 47.2412c22.123 17.0801 59.7666 36.4746 87.7744 22.9033
c28.5781 -13.8506 30.7119 -51.9883 26.6357 -79.3105c-5.79688 -38.873 -19.9199 -77.5508 -32.6553 -114.597c-46.418 -135.038 -112.444 -262.728 -153.896 -399.544c-10.1729 -33.582 -18.9736 -67.5781 -25.4717 -102.072
c-3.25684 -17.2871 -6.08398 -34.7197 -7.98438 -52.2139c-1.11914 -10.3027 -4.56738 -33.8008 7.0918 -39.9844c14.7705 -7.83105 42.8242 22.625 51.4375 31.0889c11.4326 11.2373 21.8926 23.4707 31.9307 35.957c22.3223 27.7666 42.6445 57.2842 62.6367 86.752
c78.1953 115.275 145.417 237.544 220.658 354.709c36.9121 57.4746 75.6094 113.942 118.023 167.521c21.2568 26.8506 43.4561 52.9658 66.7549 78.0732c17.2832 18.625 36.0342 45.9434 63.873 45.6748c4.85059 -0.0498047 8.41797 -5.1377 7.43359 -9.65527
c-13.9619 -63.9766 -45.4482 -123.188 -70.9541 -183.061c-47.751 -112.1 -91.6055 -226.054 -127.414 -342.567z" />
    <glyph glyph-name="U" unicode="&#xda;" horiz-adv-x="478" 
d="M399.106 171.2c-17.498 -56.9502 -33.0586 -114.512 -46.1816 -172.634c-14.0576 -62.2832 -25.1113 -125.011 -20.6631 -189.091c1.22559 -17.6855 -29.541 -22.6934 -30.9893 -4.00391c-5.50977 71.0879 9.47461 141.486 26.2949 210.157
c28.6475 116.977 66.9004 231.57 111.08 343.559c22.8047 57.8047 47.1875 114.984 72.5664 171.701c22.6973 50.7207 50.2295 101.02 64.3945 155.042c-13.3184 -7.61328 -26.9121 -26.6367 -35.0234 -35.376c-12.3828 -13.3447 -24.4561 -26.9766 -36.2451 -40.8535
c-23.5479 -27.7207 -45.9346 -56.4141 -67.4092 -85.7627c-43.3145 -59.1992 -82.7129 -121.138 -120.966 -183.689c-67.7549 -110.793 -132.161 -223.755 -206.448 -330.406c-18.5596 -26.6396 -37.2764 -53.5127 -58.8896 -77.7959
c-17.6094 -19.7891 -40.0576 -45.9121 -66.874 -52.5938c-66.9844 -16.6973 -47.3867 83.1953 -41.2793 116.46c24.0342 130.923 80.2949 253.13 133.088 374.379c27.0957 62.2334 53.6055 124.942 74.7129 189.51c10.0576 30.7627 28.2607 73.123 12.6895 104.694
c-10.9307 22.1611 -35.291 16.4141 -53.9004 8.49023c-3.43652 -1.46777 -52.3027 -31.9541 -39.6816 -36.2109c7.88086 -2.65918 2.48633 -13.916 -4.60938 -12.4902c-30.8809 6.19531 -4.52832 37.2148 8.45996 47.2412c22.123 17.0801 59.7666 36.4746 87.7744 22.9033
c28.5781 -13.8506 30.7119 -51.9883 26.6357 -79.3105c-5.79688 -38.873 -19.9199 -77.5508 -32.6553 -114.597c-46.418 -135.038 -112.444 -262.728 -153.896 -399.544c-10.1729 -33.582 -18.9736 -67.5781 -25.4717 -102.072
c-3.25684 -17.2871 -6.08398 -34.7197 -7.98438 -52.2139c-1.11914 -10.3027 -4.56738 -33.8008 7.0918 -39.9844c14.7705 -7.83105 42.8242 22.625 51.4375 31.0889c11.4326 11.2373 21.8926 23.4707 31.9307 35.957c22.3223 27.7666 42.6445 57.2842 62.6367 86.752
c78.1953 115.275 145.417 237.544 220.658 354.709c36.9121 57.4746 75.6094 113.942 118.023 167.521c21.2568 26.8506 43.4561 52.9658 66.7549 78.0732c17.2832 18.625 36.0342 45.9434 63.873 45.6748c4.85059 -0.0498047 8.41797 -5.1377 7.43359 -9.65527
c-13.9619 -63.9766 -45.4482 -123.188 -70.9541 -183.061c-47.751 -112.1 -91.6055 -226.054 -127.414 -342.567z" />
    <glyph glyph-name="V" unicode="V" horiz-adv-x="440" 
d="M48.6914 -199.079c-18.5479 -18.2334 -52.8018 -26.0254 -63.6562 4.67188c-5.49023 15.5361 -3.87695 34.7812 -3.35156 50.9648c0.589844 18.1191 2.47852 36.2451 5.04199 54.1797c11.5635 80.8545 33.4102 160.877 55.835 239.291
c22.3525 78.1719 47.9463 155.355 74.9307 232.037c26.9307 76.5215 58.2451 151.743 72.6777 231.95c2.94238 16.3486 9.29883 39.3604 2.12305 55.4941c-9.82715 22.0957 -38.957 16.2949 -56.8457 10.2217c-34.9961 -11.877 -64.6973 -34.5166 -87.1992 -63.5781
c-4.88867 -6.31836 -15.4023 0.225586 -10.0576 7.14941c21.4404 27.7734 49.333 49.915 81.8154 63.4434c23.7471 9.89258 58.2412 19.4668 78.8652 -1.90527c24.1455 -25.0195 12.8701 -71.46 7.33008 -101.444c-8.08008 -43.709 -21.417 -86.1572 -35.4365 -128.261
c-51.9229 -155.977 -103.329 -312.072 -137.233 -473.168c-8.65918 -41.1455 -16.8242 -82.54 -18.3721 -124.67c-0.333008 -9.06543 -2.78125 -23.7744 0.207031 -32.418c1.34082 -3.87402 3.1416 -11.3799 10.3828 -10.001
c2.75488 0.525391 7.7207 6.25684 10.0537 8.73926c13.1611 14.0156 24.2266 31.3184 34.7744 47.2949c42.2646 64.0195 74.5938 134.207 110.191 202.004c66.8848 127.402 138.015 253.026 223.061 369.337c41.8047 57.1797 87.0273 111.957 136.438 162.738
c24.7051 25.3906 50.4521 49.7314 77.1875 72.9688c26.8047 23.2988 54.1914 45.9541 87.5781 59.084c14.375 5.65918 21.9883 -14.3252 7.66309 -19.9648c-39.7666 -15.6592 -72.5098 -47.042 -103.529 -75.5703c-29.2227 -26.877 -57.1152 -55.1758 -83.7471 -84.6162
c-54.8809 -60.6709 -104.395 -126.077 -149.773 -194.104c-79.582 -119.303 -146.739 -246.149 -211.739 -373.801c-17.2256 -33.8311 -34.6006 -67.6084 -53.8652 -100.336c-17.4863 -29.7051 -36.6016 -63.4102 -61.3486 -87.7324z" />
    <glyph glyph-name="W" unicode="W" horiz-adv-x="591" 
d="M792.599 689.936c14.4521 10.8662 31.5127 -9.12988 16.2559 -20.5361c-24.1113 -18.0303 -47.2266 -37.249 -69.1504 -57.8887c-183.096 -172.349 -279.827 -409 -399.75 -624.763c-25.4248 -45.7471 -52.1992 -107.602 -100.996 -133.272
c-45.5557 -23.9658 -73.6709 15.8652 -77.3223 57.6621c-3.48633 39.9082 1.84277 81.0312 10.0078 121.192c-2.45605 -3.64746 -4.89648 -7.30273 -7.37109 -10.9307c-32.4902 -47.5898 -67.0684 -98.0342 -111.176 -135.712
c-17.2529 -14.7314 -42.6777 -35.4707 -67.1875 -30.4365c-19.4717 4 -28.5869 22.6816 -29.667 41.0605c-1.55957 26.5215 7.06836 54.7969 12.835 80.4023c6.84277 30.3789 14.835 60.4941 23.6279 90.3643c35.3682 120.146 83.376 236.076 124.874 354.134
c20.1191 57.2373 40.9961 116.1 53.8506 175.468c6.50977 30.0576 3.73535 67.4326 -34.2412 71.8193c-34.1533 3.94629 -60.9043 -22.835 -82.9238 -44.9463c-5.55566 -5.57812 -16.2227 0.874023 -10.0576 7.14941c29.7891 30.3291 76.9121 70.5166 121.525 42.1104
c44.3369 -28.2256 24.7891 -94.3555 14.3604 -134.995c-32.2568 -125.697 -81.0303 -245.942 -123.026 -368.49c-18.7012 -54.5781 -36.1533 -109.65 -50.0273 -165.677c-7.17578 -28.9883 -14.2832 -58.4902 -18.5361 -88.0723
c-1.20703 -8.38672 -3.39844 -21.8232 0.942383 -29.7852c8.53223 -15.6592 30.6855 1.85449 40.2949 8.87012c43.877 32.0342 77.3174 80.915 108.156 124.85c16.1299 22.9766 31.6582 46.3906 46.873 70.0146c0.478516 1.94238 0.957031 3.89648 1.43555 5.82715
c14.0264 56.7705 32.5508 112.476 54.8418 166.529c23.3105 56.5361 51.0879 111.203 82.6016 163.602c9.63574 16.0234 61.6279 111.181 88.9727 77.5566c13.0078 -15.9961 -1.43652 -48.4023 -7.55566 -64.498c-11.2295 -29.5361 -26.3906 -57.8809 -40.9043 -85.9043
c-29.8809 -57.6973 -62.6973 -113.823 -96.6436 -169.206c-21.5635 -35.1797 -43.2451 -70.3672 -65.5938 -105.103c-4.06934 -18.2031 -7.75488 -36.4863 -10.958 -54.8545c-5.25684 -30.123 -9.89258 -60.6553 -9.24902 -91.3184
c0.414062 -19.5596 1.33398 -56.7969 24.3223 -65.1533c29.667 -10.7812 60.8086 38.0693 73.291 58.1992c14.6318 23.6016 27.6855 48.2686 40.8467 72.7051c28.5557 53.0303 55.6787 106.827 83.1611 160.417c100.586 196.157 209.506 396.468 389.261 531.609z
M231.955 187.951c-4.9541 -15.1797 -9.56641 -30.4707 -13.9111 -45.8428c6.25684 10.0195 12.4902 20.0498 18.7158 30.0762c31.7314 51.126 62.6436 102.793 91.3408 155.693c7.88477 14.5322 83.6475 158.899 65.5781 162.685
c-5.30273 1.11133 -18.5439 -15.4248 -21.3564 -18.6475c-4.96582 -5.68945 -9.40625 -11.9229 -13.6553 -18.1484c-7.42188 -10.8809 -14.3525 -22.1377 -21.1377 -33.4209c-13.9805 -23.2646 -27.0801 -47.0918 -39.2529 -71.3525
c-26.0654 -51.9385 -48.2949 -105.797 -66.3213 -161.042z" />
    <glyph glyph-name="X" unicode="X" horiz-adv-x="314" 
d="M327.307 -231.462c6.7627 -4.49414 -1.44727 -12.9482 -7.53516 -10.8252c-28.1875 9.83887 -44.3252 36.3828 -59.8076 60.2568c-17.8623 27.5479 -34.0156 56.2148 -49.0078 85.418c-65.5713 127.751 -103.79 265.858 -123.894 407.142
c-35.3984 -44.5742 -68.9619 -90.582 -100.594 -137.586c-35.8467 -53.2725 -68.9307 -108.41 -97.793 -165.789c-14.6436 -29.1113 -28.2646 -58.7393 -40.6865 -88.8691c-13.1953 -32.0078 -30.8965 -67.1455 -27.4863 -102.56
c0.708984 -7.38672 -12.1836 -9.47461 -12.9609 -1.67383c-3.64746 36.5322 13.7891 72.4404 27.1992 105.552c14.7627 36.4482 31.2803 72.1758 49.2539 107.149c55.7627 108.494 124.203 210.268 200.096 305.731c-13.9199 107.992 -17.5947 217.605 -15.0049 325.682
c0.414062 17.1377 30.5293 22.0381 30.165 3.89648c-1.45605 -72.8311 -0.165039 -145.658 4.94238 -218.336c1.82422 -25.9307 4.19629 -51.8232 7.09668 -77.6543c0.410156 0.498047 0.8125 1 1.22266 1.49805c45.6318 55.1797 94.0225 108.383 146.295 157.367
c43.3525 40.624 93.5898 81.8232 153.058 94.7119c11.3945 2.47168 14.0303 -13.9189 3.77734 -17.3936c-70.7588 -23.9736 -123.87 -69.3105 -176.295 -121.245c-43.9463 -43.5322 -85.751 -89.54 -125.398 -137.375c11.2686 -89.9766 29.4912 -179.038 56.6289 -265.658
c17.709 -56.5215 39.3066 -111.747 64.7812 -165.226c13.2793 -27.8809 27.8008 -55.1758 43.2031 -81.9385c13.2686 -23.0537 26.0732 -47.1953 48.7441 -62.2754z" />
    <glyph glyph-name="Y" unicode="Y" horiz-adv-x="606" 
d="M637.199 604.571c4.55176 -64.2607 -5.11328 -132.492 -14.9258 -195.902c-20.4062 -132.026 -60.6855 -260.831 -119.05 -381.007c-27.8809 -57.4102 -59.4326 -113.494 -98.6318 -164.019c-34.8164 -44.8809 -79.2764 -94.1533 -136.43 -108.759
c-24.0264 -6.1377 -51.5283 -4.90039 -70.5088 12.8047c-16.9121 15.7744 -20.9961 40.123 -19.1719 62.2344c4.65918 56.582 40.8047 109.594 75.7666 152.226c71.7354 87.4746 169.777 151.789 278.325 183.353c3.82422 10.4824 7.55957 20.957 11.1348 31.4131
c39.6211 115.9 64.3643 237.034 71.3027 359.391c0.858398 15.1377 1.5752 30.3135 0.501953 45.459c-0.816406 11.4941 -1.63672 38.0615 -12.9316 44.8623c-6.54785 3.94629 -20.3564 -0.456055 -26.249 -4.20703c-3.54395 -2.25684 -6.78125 -5.83887 -9.83496 -8.72754
c-4.63574 -4.38281 -8.98438 -9.06445 -13.1875 -13.8613c-9.97363 -11.3867 -18.8662 -23.6553 -27.2383 -36.2568c-31.6475 -47.6436 -58.4746 -98.5479 -83.8994 -149.713c-51.042 -102.72 -95.7656 -208.889 -156.118 -306.716
c-28.2188 -45.7432 -59.0996 -92.9346 -99.9961 -128.406c-32.3906 -28.0918 -90.8311 -59.1719 -116.598 -6.15625c-11.1416 22.9199 -6.32129 50.2686 -2.53223 74.3984c4.29492 27.3604 10.8311 54.2031 19.0146 80.6475
c16.2295 52.4365 37.4785 103.146 59.8887 153.195c46.1113 102.988 99.7012 207.548 115.854 320.552c4.19531 29.3525 4.22559 63.793 -15.8438 87.8662c-24.6094 29.5215 -63.3027 18.7744 -92.2256 2.13867c-23.6631 -13.6133 -44.9775 -31.3838 -62.9619 -51.8857
c-8.2793 -9.43652 -53.7734 -63.9082 -37.333 -74.8467c6.47461 -4.31055 -2.27246 -12.9238 -8.13477 -9.10352c-17.4326 11.3564 -2.09961 35.4941 5.24512 48.3711c26.084 45.7627 67.7734 87.1035 116.815 107.655c49.1377 20.5898 102.494 2.94629 118.107 -50.8701
c8.70117 -29.9805 3.96973 -61.9844 -1.52051 -92.126c-5.52539 -30.3486 -13.7129 -60.2412 -23.2305 -89.5664c-18.9307 -58.3408 -43.9346 -114.513 -68.7432 -170.532c-25.9199 -58.5283 -52.3027 -117.176 -71.6777 -178.275
c-9.3252 -29.4102 -17.3633 -59.4023 -23.2441 -89.7012c-3.16895 -16.3252 -7.59375 -34.6084 -2.8623 -50.9951c6.9541 -24.0732 26.3682 -25.2988 46.4521 -14.9658c56.1338 28.8848 94.0957 91.2598 126.325 143.183c34.3145 55.2793 63.5674 113.498 91.8398 172.042
c27.9004 57.7627 54.8428 116.016 84.7549 172.782c28.207 53.5361 57.874 111.835 99.9199 156.026c15.5283 16.3223 40.2871 40.9541 65.1494 29.6816c22.751 -10.3145 27.1338 -41.8359 28.6816 -63.6826zM379.623 -122.664
c61.9385 78.2871 108.562 171.593 144.578 265.75c-17.6934 -5.58594 -35.1182 -11.9766 -52.168 -19.3711c-97.9502 -42.4746 -187.781 -117.21 -240.686 -210.716c-18.9238 -33.4443 -60.709 -143.655 17.3369 -135.563c54.0117 5.60156 99.6396 60.3369 130.938 99.9004z
" />
    <glyph glyph-name="Y" unicode="&#x178;" horiz-adv-x="606" 
d="M637.199 604.571c4.55176 -64.2607 -5.11328 -132.492 -14.9258 -195.902c-20.4062 -132.026 -60.6855 -260.831 -119.05 -381.007c-27.8809 -57.4102 -59.4326 -113.494 -98.6318 -164.019c-34.8164 -44.8809 -79.2764 -94.1533 -136.43 -108.759
c-24.0264 -6.1377 -51.5283 -4.90039 -70.5088 12.8047c-16.9121 15.7744 -20.9961 40.123 -19.1719 62.2344c4.65918 56.582 40.8047 109.594 75.7666 152.226c71.7354 87.4746 169.777 151.789 278.325 183.353c3.82422 10.4824 7.55957 20.957 11.1348 31.4131
c39.6211 115.9 64.3643 237.034 71.3027 359.391c0.858398 15.1377 1.5752 30.3135 0.501953 45.459c-0.816406 11.4941 -1.63672 38.0615 -12.9316 44.8623c-6.54785 3.94629 -20.3564 -0.456055 -26.249 -4.20703c-3.54395 -2.25684 -6.78125 -5.83887 -9.83496 -8.72754
c-4.63574 -4.38281 -8.98438 -9.06445 -13.1875 -13.8613c-9.97363 -11.3867 -18.8662 -23.6553 -27.2383 -36.2568c-31.6475 -47.6436 -58.4746 -98.5479 -83.8994 -149.713c-51.042 -102.72 -95.7656 -208.889 -156.118 -306.716
c-28.2188 -45.7432 -59.0996 -92.9346 -99.9961 -128.406c-32.3906 -28.0918 -90.8311 -59.1719 -116.598 -6.15625c-11.1416 22.9199 -6.32129 50.2686 -2.53223 74.3984c4.29492 27.3604 10.8311 54.2031 19.0146 80.6475
c16.2295 52.4365 37.4785 103.146 59.8887 153.195c46.1113 102.988 99.7012 207.548 115.854 320.552c4.19531 29.3525 4.22559 63.793 -15.8438 87.8662c-24.6094 29.5215 -63.3027 18.7744 -92.2256 2.13867c-23.6631 -13.6133 -44.9775 -31.3838 -62.9619 -51.8857
c-8.2793 -9.43652 -53.7734 -63.9082 -37.333 -74.8467c6.47461 -4.31055 -2.27246 -12.9238 -8.13477 -9.10352c-17.4326 11.3564 -2.09961 35.4941 5.24512 48.3711c26.084 45.7627 67.7734 87.1035 116.815 107.655c49.1377 20.5898 102.494 2.94629 118.107 -50.8701
c8.70117 -29.9805 3.96973 -61.9844 -1.52051 -92.126c-5.52539 -30.3486 -13.7129 -60.2412 -23.2305 -89.5664c-18.9307 -58.3408 -43.9346 -114.513 -68.7432 -170.532c-25.9199 -58.5283 -52.3027 -117.176 -71.6777 -178.275
c-9.3252 -29.4102 -17.3633 -59.4023 -23.2441 -89.7012c-3.16895 -16.3252 -7.59375 -34.6084 -2.8623 -50.9951c6.9541 -24.0732 26.3682 -25.2988 46.4521 -14.9658c56.1338 28.8848 94.0957 91.2598 126.325 143.183c34.3145 55.2793 63.5674 113.498 91.8398 172.042
c27.9004 57.7627 54.8428 116.016 84.7549 172.782c28.207 53.5361 57.874 111.835 99.9199 156.026c15.5283 16.3223 40.2871 40.9541 65.1494 29.6816c22.751 -10.3145 27.1338 -41.8359 28.6816 -63.6826zM379.623 -122.664
c61.9385 78.2871 108.562 171.593 144.578 265.75c-17.6934 -5.58594 -35.1182 -11.9766 -52.168 -19.3711c-97.9502 -42.4746 -187.781 -117.21 -240.686 -210.716c-18.9238 -33.4443 -60.709 -143.655 17.3369 -135.563c54.0117 5.60156 99.6396 60.3369 130.938 99.9004z
" />
    <glyph glyph-name="Y" unicode="&#xdd;" horiz-adv-x="606" 
d="M637.199 604.571c4.55176 -64.2607 -5.11328 -132.492 -14.9258 -195.902c-20.4062 -132.026 -60.6855 -260.831 -119.05 -381.007c-27.8809 -57.4102 -59.4326 -113.494 -98.6318 -164.019c-34.8164 -44.8809 -79.2764 -94.1533 -136.43 -108.759
c-24.0264 -6.1377 -51.5283 -4.90039 -70.5088 12.8047c-16.9121 15.7744 -20.9961 40.123 -19.1719 62.2344c4.65918 56.582 40.8047 109.594 75.7666 152.226c71.7354 87.4746 169.777 151.789 278.325 183.353c3.82422 10.4824 7.55957 20.957 11.1348 31.4131
c39.6211 115.9 64.3643 237.034 71.3027 359.391c0.858398 15.1377 1.5752 30.3135 0.501953 45.459c-0.816406 11.4941 -1.63672 38.0615 -12.9316 44.8623c-6.54785 3.94629 -20.3564 -0.456055 -26.249 -4.20703c-3.54395 -2.25684 -6.78125 -5.83887 -9.83496 -8.72754
c-4.63574 -4.38281 -8.98438 -9.06445 -13.1875 -13.8613c-9.97363 -11.3867 -18.8662 -23.6553 -27.2383 -36.2568c-31.6475 -47.6436 -58.4746 -98.5479 -83.8994 -149.713c-51.042 -102.72 -95.7656 -208.889 -156.118 -306.716
c-28.2188 -45.7432 -59.0996 -92.9346 -99.9961 -128.406c-32.3906 -28.0918 -90.8311 -59.1719 -116.598 -6.15625c-11.1416 22.9199 -6.32129 50.2686 -2.53223 74.3984c4.29492 27.3604 10.8311 54.2031 19.0146 80.6475
c16.2295 52.4365 37.4785 103.146 59.8887 153.195c46.1113 102.988 99.7012 207.548 115.854 320.552c4.19531 29.3525 4.22559 63.793 -15.8438 87.8662c-24.6094 29.5215 -63.3027 18.7744 -92.2256 2.13867c-23.6631 -13.6133 -44.9775 -31.3838 -62.9619 -51.8857
c-8.2793 -9.43652 -53.7734 -63.9082 -37.333 -74.8467c6.47461 -4.31055 -2.27246 -12.9238 -8.13477 -9.10352c-17.4326 11.3564 -2.09961 35.4941 5.24512 48.3711c26.084 45.7627 67.7734 87.1035 116.815 107.655c49.1377 20.5898 102.494 2.94629 118.107 -50.8701
c8.70117 -29.9805 3.96973 -61.9844 -1.52051 -92.126c-5.52539 -30.3486 -13.7129 -60.2412 -23.2305 -89.5664c-18.9307 -58.3408 -43.9346 -114.513 -68.7432 -170.532c-25.9199 -58.5283 -52.3027 -117.176 -71.6777 -178.275
c-9.3252 -29.4102 -17.3633 -59.4023 -23.2441 -89.7012c-3.16895 -16.3252 -7.59375 -34.6084 -2.8623 -50.9951c6.9541 -24.0732 26.3682 -25.2988 46.4521 -14.9658c56.1338 28.8848 94.0957 91.2598 126.325 143.183c34.3145 55.2793 63.5674 113.498 91.8398 172.042
c27.9004 57.7627 54.8428 116.016 84.7549 172.782c28.207 53.5361 57.874 111.835 99.9199 156.026c15.5283 16.3223 40.2871 40.9541 65.1494 29.6816c22.751 -10.3145 27.1338 -41.8359 28.6816 -63.6826zM379.623 -122.664
c61.9385 78.2871 108.562 171.593 144.578 265.75c-17.6934 -5.58594 -35.1182 -11.9766 -52.168 -19.3711c-97.9502 -42.4746 -187.781 -117.21 -240.686 -210.716c-18.9238 -33.4443 -60.709 -143.655 17.3369 -135.563c54.0117 5.60156 99.6396 60.3369 130.938 99.9004z
" />
    <glyph glyph-name="Z" unicode="Z" horiz-adv-x="564" 
d="M537.012 694.932c64.5557 -32.7627 45.4502 -134.661 29.7988 -189.496c-21.9346 -76.8623 -58.21 -150.253 -98.4824 -219.111c31.0723 1.47168 62.0029 0.874023 91.5889 -1.31348c16.0039 -1.18359 9.44824 -22.9541 -4.9043 -21.958
c-33.1953 2.30664 -66.1992 3.46777 -99.3486 2.11523c-61.5635 -101.54 -135.479 -197.114 -215.41 -285.957c57.2715 18.6514 115.317 34.9004 173.899 48.9004c13.7705 3.29492 13.9238 -16.2764 1.21875 -19.3379
c-68.3105 -16.4639 -135.962 -36.0996 -202.341 -59.2793c-18.582 -19.9844 -37.4092 -39.6553 -56.4629 -58.9199c-29.502 -29.835 -60.2607 -58.4521 -92.4863 -85.333c-31.0459 -25.9004 -64.291 -54.46 -102.988 -68.0732
c-22.4404 -7.89258 -62.8848 -16.2793 -66.2139 18.1729c-3.06543 31.7168 29.877 62.1533 51.1836 80.8086c60.7432 53.1836 138.233 86.8965 213.114 114.835c6.60547 2.46387 13.2451 4.83203 19.877 7.22656c15.1416 16.3184 30.0762 32.8242 44.8232 49.46
c71.3604 80.5137 139.651 164.655 198.034 255.169c-32.0078 -3.27246 -63.2725 -9.50195 -94.9893 -14.7314c-0.0996094 -0.0498047 -0.179688 -0.111328 -0.287109 -0.161133c-3.9502 -1.83496 -5.41797 -2.07617 -9.67871 -1.1875
c-6.6748 1.39062 -7.61719 9.99609 -0.839844 12.3486c37.3682 12.9736 78.0117 20.8701 119.142 24.8467c16.2334 26.1572 31.6621 52.8203 46.0225 80.1191c35.0693 66.6738 69.7471 139.306 79.3145 214.77c4.11523 32.4443 6.00781 79.1182 -24.0186 100.735
c-31.5439 22.7129 -77.709 6.21094 -110.54 -4.71289c-70.0078 -23.2871 -135.034 -58.6553 -200.716 -91.7314c-60.5059 -30.4717 -131.36 -72.9961 -201.675 -64.1035c-8.48633 1.07324 -5.05762 12.667 2.62012 11.7246
c51.3252 -6.29492 100.536 18.4561 145.731 39.7285c43.1875 20.3252 85.249 42.915 128.034 64.0527c42.5439 21.0156 85.9268 40.7168 131.252 54.9893c32.9805 10.3828 72.8037 22.1143 105.728 5.40527zM60.9717 -157.326
c30.3066 26.2256 59.168 54.0684 87.0918 82.835c-73.6738 -28.6631 -156.969 -64.4717 -208.194 -126.583c-5.19141 -6.29102 -29.9082 -37.5479 -14.4297 -42.5137c6.21484 -1.99609 19.7207 5.07715 25.3945 7.4834c8.47852 3.59766 16.5703 8.01953 24.4131 12.832
c30.5596 18.7549 58.6709 42.5361 85.7246 65.9463z" />
    <glyph glyph-name="bracketleft" unicode="[" horiz-adv-x="695" 
d="M640.76 793.508c8.28711 -3.74316 1.37598 -14.332 -6.18359 -11.792c-121.62 40.9424 -202.443 -92.6748 -251.681 -180.295c-50.4678 -89.8164 -91.1387 -184.679 -128.909 -280.402c-39.0801 -99.0576 -76.8428 -198.912 -108.889 -300.49
c-15.877 -50.3223 -30.1104 -101.188 -41.5928 -152.698c-10.5137 -47.165 -21.7549 -96.4023 -22.2451 -144.935c-0.414062 -40.8125 8.86914 -87.1729 48.8926 -107.203c39.5098 -19.7705 88.8086 -8.41797 129.605 0.960938
c16.0303 3.68555 20.582 -20.9238 5.40234 -24.8623c-49.4326 -12.8311 -106.241 -25.6123 -154.05 -0.382812c-45.084 23.7891 -60.7549 73.7891 -61.1035 121.881c-0.386719 52.8809 11.751 106.532 23.3604 157.827c12.7168 56.1797 28.625 111.636 46.5596 166.367
c36.8164 112.364 79.9961 223.111 125.353 332.276c44.123 106.203 93.8623 211.556 157.974 307.322c50.5215 75.4717 139.039 160.912 237.507 116.426z" />
    <glyph glyph-name="backslash" unicode="\" horiz-adv-x="332" 
d="M282.311 -130.266c2.60938 -13.9238 -24.1416 -21.0859 -27.4404 -6.94824c-34.5742 148.521 -62.7656 298.788 -93.4824 448.152c-15.2227 74.0342 -30.1426 148.134 -47.2803 221.758c-16.4824 70.8271 -32.7812 144.057 -63.5557 210.321
c-3.32227 7.14941 9.2832 11.8467 12.7432 4.88867c65.4902 -131.789 91.9688 -279.743 122.785 -422.605c32.6973 -151.586 67.709 -303.138 96.2305 -455.566z" />
    <glyph glyph-name="bracketright" unicode="]" horiz-adv-x="635" 
d="M571.009 688.749c16.54 -46.7588 14.8877 -100.472 11.8379 -149.207c-3.37891 -53.9883 -11.8008 -107.552 -22.0615 -160.625c-19.4521 -100.628 -47.8848 -199.586 -88.5898 -293.747c-39.2148 -90.7129 -89.7588 -183.828 -160.05 -254.438
c-65.9727 -66.2715 -159.686 -110.907 -253.861 -85.2139c-16.8242 4.58984 -5.18457 29.7314 9.70801 26.3252c103.464 -23.6396 193.97 38.2373 255.84 115.797c112.046 140.456 173.349 320.318 208.556 494.372c9.52148 47.0537 17.6514 94.5859 22.2334 142.398
c4.55957 47.5361 8.26855 100.556 -3.64746 147.353c-11.3369 44.5176 -44.1338 72.207 -89.9727 76.3105c-47.5781 4.26465 -93.5977 -17.5322 -135.578 -37.2412c-6.9043 -3.24121 -12.9922 6.9502 -6.07617 10.6357c46.1836 24.6094 94.6699 49.207 148.643 44.6328
c47.709 -4.04199 86.9277 -31.8506 103.02 -77.3525z" />
    <glyph glyph-name="asciicircum" unicode="^" horiz-adv-x="279" 
d="M177.012 582.898c22.6055 16.8467 53.0537 9.26758 52.1572 -21.8857c-1.19141 -41.5361 -6.64355 -83.4365 -9.94238 -124.865c-1.51758 -19.042 -31.2148 -20.8623 -29.5254 -0.330078c2.42188 29.3789 4.83984 58.7578 7.26172 88.1367
c0.605469 7.34863 1.2373 14.6895 1.81543 22.0381c0.609375 7.72461 5.625 18.5791 -5.83496 16.7979c-9.02344 -1.40234 -24.8203 -21.7627 -31.3301 -28.0732c-18.9307 -18.3721 -36.4521 -38.1035 -52.7705 -58.8281
c-16.2754 -20.6709 -29.4512 -43.5059 -45.4971 -64.2725c-3.7666 -4.87402 -15.5137 -2.54492 -12.9922 4.81934c11.2334 32.7812 33.0645 63.5205 54.2178 90.7119c20.9766 26.9619 44.8809 55.2188 72.4404 75.751z" />
    <glyph glyph-name="underscore" unicode="_" horiz-adv-x="389" 
d="M326.922 -32.9443c15.7969 0.876953 16.418 -20.9316 1.37207 -21.7822c-89.4639 -5.06934 -178.123 -15.3105 -266.916 -26.9961c-14.9004 -1.96191 -14.9961 18.042 -1.28711 20.3984c88.0996 15.1572 177.628 23.4102 266.831 28.3799z" />
    <glyph glyph-name="grave" unicode="`" horiz-adv-x="147" 
d="M96.9707 476.385c4.08008 -13.207 -18.5176 -21.6982 -22.3564 -8.58691c-13.8428 47.2871 -22.9229 95.7012 -24.6084 145.008c-0.37207 10.751 17.5205 13.8086 18.8496 2.43652c5.50586 -47.126 14.1035 -93.4707 28.1152 -138.857z" />
    <glyph glyph-name="a" unicode="a" horiz-adv-x="362" 
d="M383.416 213.856c4.89258 5.84277 14.9697 -0.386719 9.61328 -6.83105c-44.7549 -53.8965 -89.6475 -107.969 -140.532 -156.275c-29.4062 -27.916 -93.4561 -91.5439 -138.341 -60.7627c-22.4062 15.3643 -23.249 43.7666 -19.9805 68.1113
c4.25293 31.7012 14.5215 62.5596 26.7588 91.9883c4.67773 11.2451 9.75781 22.3564 15.168 33.3301c-8.24512 -12.2031 -16.5322 -24.3828 -25.0566 -36.3984c-23.3682 -32.9385 -59.6973 -91.0762 -105.211 -94.1182
c-53.2373 -3.55566 -43.8086 66.4248 -30.2188 97.1719c20.1377 45.5518 59.3291 87.6631 104.524 108.981c28.042 13.2295 66.0264 14 90.1221 -4.70508c10.3369 13.7705 21.1914 27.1309 32.8848 39.8203c4.68164 6.64355 9.41699 13.2256 14.1943 19.7432
c10.0879 13.7588 37.8047 1.77441 27.5596 -14.5049c-28.4062 -45.126 -58.8809 -88.6436 -82.5361 -136.602c-11.5859 -23.4941 -21.4131 -47.6279 -28.8877 -72.7471c-6.32227 -21.2451 -19.7129 -56.7197 -7.45605 -77.4863
c40.7773 -69.084 230.624 169.311 257.395 201.284zM125.498 190.197c9.18359 13.6172 18.3584 27.2646 27.7832 40.7168c-28.7314 34.0156 -91.6514 -10.7012 -115.069 -35.7969c-17.3682 -18.6133 -32.541 -40.6328 -41.5713 -64.5566
c-8.93066 -23.6553 -12.2256 -76.2646 29.6514 -56.5518c22.667 10.6709 40.1416 35.1191 55.2529 54.4141c15.5898 19.9082 29.8232 40.8242 43.9531 61.7744z" />
    <glyph glyph-name="a" unicode="&#xe5;" horiz-adv-x="362" 
d="M383.416 213.856c4.89258 5.84277 14.9697 -0.386719 9.61328 -6.83105c-44.7549 -53.8965 -89.6475 -107.969 -140.532 -156.275c-29.4062 -27.916 -93.4561 -91.5439 -138.341 -60.7627c-22.4062 15.3643 -23.249 43.7666 -19.9805 68.1113
c4.25293 31.7012 14.5215 62.5596 26.7588 91.9883c4.67773 11.2451 9.75781 22.3564 15.168 33.3301c-8.24512 -12.2031 -16.5322 -24.3828 -25.0566 -36.3984c-23.3682 -32.9385 -59.6973 -91.0762 -105.211 -94.1182
c-53.2373 -3.55566 -43.8086 66.4248 -30.2188 97.1719c20.1377 45.5518 59.3291 87.6631 104.524 108.981c28.042 13.2295 66.0264 14 90.1221 -4.70508c10.3369 13.7705 21.1914 27.1309 32.8848 39.8203c4.68164 6.64355 9.41699 13.2256 14.1943 19.7432
c10.0879 13.7588 37.8047 1.77441 27.5596 -14.5049c-28.4062 -45.126 -58.8809 -88.6436 -82.5361 -136.602c-11.5859 -23.4941 -21.4131 -47.6279 -28.8877 -72.7471c-6.32227 -21.2451 -19.7129 -56.7197 -7.45605 -77.4863
c40.7773 -69.084 230.624 169.311 257.395 201.284zM125.498 190.197c9.18359 13.6172 18.3584 27.2646 27.7832 40.7168c-28.7314 34.0156 -91.6514 -10.7012 -115.069 -35.7969c-17.3682 -18.6133 -32.541 -40.6328 -41.5713 -64.5566
c-8.93066 -23.6553 -12.2256 -76.2646 29.6514 -56.5518c22.667 10.6709 40.1416 35.1191 55.2529 54.4141c15.5898 19.9082 29.8232 40.8242 43.9531 61.7744z" />
    <glyph glyph-name="a" unicode="&#xe4;" horiz-adv-x="362" 
d="M383.416 213.856c4.89258 5.84277 14.9697 -0.386719 9.61328 -6.83105c-44.7549 -53.8965 -89.6475 -107.969 -140.532 -156.275c-29.4062 -27.916 -93.4561 -91.5439 -138.341 -60.7627c-22.4062 15.3643 -23.249 43.7666 -19.9805 68.1113
c4.25293 31.7012 14.5215 62.5596 26.7588 91.9883c4.67773 11.2451 9.75781 22.3564 15.168 33.3301c-8.24512 -12.2031 -16.5322 -24.3828 -25.0566 -36.3984c-23.3682 -32.9385 -59.6973 -91.0762 -105.211 -94.1182
c-53.2373 -3.55566 -43.8086 66.4248 -30.2188 97.1719c20.1377 45.5518 59.3291 87.6631 104.524 108.981c28.042 13.2295 66.0264 14 90.1221 -4.70508c10.3369 13.7705 21.1914 27.1309 32.8848 39.8203c4.68164 6.64355 9.41699 13.2256 14.1943 19.7432
c10.0879 13.7588 37.8047 1.77441 27.5596 -14.5049c-28.4062 -45.126 -58.8809 -88.6436 -82.5361 -136.602c-11.5859 -23.4941 -21.4131 -47.6279 -28.8877 -72.7471c-6.32227 -21.2451 -19.7129 -56.7197 -7.45605 -77.4863
c40.7773 -69.084 230.624 169.311 257.395 201.284zM125.498 190.197c9.18359 13.6172 18.3584 27.2646 27.7832 40.7168c-28.7314 34.0156 -91.6514 -10.7012 -115.069 -35.7969c-17.3682 -18.6133 -32.541 -40.6328 -41.5713 -64.5566
c-8.93066 -23.6553 -12.2256 -76.2646 29.6514 -56.5518c22.667 10.6709 40.1416 35.1191 55.2529 54.4141c15.5898 19.9082 29.8232 40.8242 43.9531 61.7744z" />
    <glyph glyph-name="a" unicode="&#xe3;" horiz-adv-x="362" 
d="M383.416 213.856c4.89258 5.84277 14.9697 -0.386719 9.61328 -6.83105c-44.7549 -53.8965 -89.6475 -107.969 -140.532 -156.275c-29.4062 -27.916 -93.4561 -91.5439 -138.341 -60.7627c-22.4062 15.3643 -23.249 43.7666 -19.9805 68.1113
c4.25293 31.7012 14.5215 62.5596 26.7588 91.9883c4.67773 11.2451 9.75781 22.3564 15.168 33.3301c-8.24512 -12.2031 -16.5322 -24.3828 -25.0566 -36.3984c-23.3682 -32.9385 -59.6973 -91.0762 -105.211 -94.1182
c-53.2373 -3.55566 -43.8086 66.4248 -30.2188 97.1719c20.1377 45.5518 59.3291 87.6631 104.524 108.981c28.042 13.2295 66.0264 14 90.1221 -4.70508c10.3369 13.7705 21.1914 27.1309 32.8848 39.8203c4.68164 6.64355 9.41699 13.2256 14.1943 19.7432
c10.0879 13.7588 37.8047 1.77441 27.5596 -14.5049c-28.4062 -45.126 -58.8809 -88.6436 -82.5361 -136.602c-11.5859 -23.4941 -21.4131 -47.6279 -28.8877 -72.7471c-6.32227 -21.2451 -19.7129 -56.7197 -7.45605 -77.4863
c40.7773 -69.084 230.624 169.311 257.395 201.284zM125.498 190.197c9.18359 13.6172 18.3584 27.2646 27.7832 40.7168c-28.7314 34.0156 -91.6514 -10.7012 -115.069 -35.7969c-17.3682 -18.6133 -32.541 -40.6328 -41.5713 -64.5566
c-8.93066 -23.6553 -12.2256 -76.2646 29.6514 -56.5518c22.667 10.6709 40.1416 35.1191 55.2529 54.4141c15.5898 19.9082 29.8232 40.8242 43.9531 61.7744z" />
    <glyph glyph-name="a" unicode="&#xe2;" horiz-adv-x="362" 
d="M383.416 213.856c4.89258 5.84277 14.9697 -0.386719 9.61328 -6.83105c-44.7549 -53.8965 -89.6475 -107.969 -140.532 -156.275c-29.4062 -27.916 -93.4561 -91.5439 -138.341 -60.7627c-22.4062 15.3643 -23.249 43.7666 -19.9805 68.1113
c4.25293 31.7012 14.5215 62.5596 26.7588 91.9883c4.67773 11.2451 9.75781 22.3564 15.168 33.3301c-8.24512 -12.2031 -16.5322 -24.3828 -25.0566 -36.3984c-23.3682 -32.9385 -59.6973 -91.0762 -105.211 -94.1182
c-53.2373 -3.55566 -43.8086 66.4248 -30.2188 97.1719c20.1377 45.5518 59.3291 87.6631 104.524 108.981c28.042 13.2295 66.0264 14 90.1221 -4.70508c10.3369 13.7705 21.1914 27.1309 32.8848 39.8203c4.68164 6.64355 9.41699 13.2256 14.1943 19.7432
c10.0879 13.7588 37.8047 1.77441 27.5596 -14.5049c-28.4062 -45.126 -58.8809 -88.6436 -82.5361 -136.602c-11.5859 -23.4941 -21.4131 -47.6279 -28.8877 -72.7471c-6.32227 -21.2451 -19.7129 -56.7197 -7.45605 -77.4863
c40.7773 -69.084 230.624 169.311 257.395 201.284zM125.498 190.197c9.18359 13.6172 18.3584 27.2646 27.7832 40.7168c-28.7314 34.0156 -91.6514 -10.7012 -115.069 -35.7969c-17.3682 -18.6133 -32.541 -40.6328 -41.5713 -64.5566
c-8.93066 -23.6553 -12.2256 -76.2646 29.6514 -56.5518c22.667 10.6709 40.1416 35.1191 55.2529 54.4141c15.5898 19.9082 29.8232 40.8242 43.9531 61.7744z" />
    <glyph glyph-name="a" unicode="&#xe1;" horiz-adv-x="362" 
d="M383.416 213.856c4.89258 5.84277 14.9697 -0.386719 9.61328 -6.83105c-44.7549 -53.8965 -89.6475 -107.969 -140.532 -156.275c-29.4062 -27.916 -93.4561 -91.5439 -138.341 -60.7627c-22.4062 15.3643 -23.249 43.7666 -19.9805 68.1113
c4.25293 31.7012 14.5215 62.5596 26.7588 91.9883c4.67773 11.2451 9.75781 22.3564 15.168 33.3301c-8.24512 -12.2031 -16.5322 -24.3828 -25.0566 -36.3984c-23.3682 -32.9385 -59.6973 -91.0762 -105.211 -94.1182
c-53.2373 -3.55566 -43.8086 66.4248 -30.2188 97.1719c20.1377 45.5518 59.3291 87.6631 104.524 108.981c28.042 13.2295 66.0264 14 90.1221 -4.70508c10.3369 13.7705 21.1914 27.1309 32.8848 39.8203c4.68164 6.64355 9.41699 13.2256 14.1943 19.7432
c10.0879 13.7588 37.8047 1.77441 27.5596 -14.5049c-28.4062 -45.126 -58.8809 -88.6436 -82.5361 -136.602c-11.5859 -23.4941 -21.4131 -47.6279 -28.8877 -72.7471c-6.32227 -21.2451 -19.7129 -56.7197 -7.45605 -77.4863
c40.7773 -69.084 230.624 169.311 257.395 201.284zM125.498 190.197c9.18359 13.6172 18.3584 27.2646 27.7832 40.7168c-28.7314 34.0156 -91.6514 -10.7012 -115.069 -35.7969c-17.3682 -18.6133 -32.541 -40.6328 -41.5713 -64.5566
c-8.93066 -23.6553 -12.2256 -76.2646 29.6514 -56.5518c22.667 10.6709 40.1416 35.1191 55.2529 54.4141c15.5898 19.9082 29.8232 40.8242 43.9531 61.7744z" />
    <glyph glyph-name="b" unicode="b" horiz-adv-x="228" 
d="M253.392 210.688c8.47461 2.77051 12.9834 -8.7627 4.45508 -11.6055c-30.3027 -10.1113 -61.1729 -20.3906 -90.207 -34.1221c-1.58984 -12.291 -4.50586 -24.1416 -7.7666 -33.5166c-8.24512 -23.7168 -23.375 -44.8047 -45.5088 -57.3525
c-15.8506 -8.98438 -47.4404 -17.6055 -59.6396 2.07617c-11.1953 18.0615 20.5674 41.9277 31.7705 51.958c17.5898 15.751 36.9424 28.4941 57.3604 39.3066c3.74707 15.9922 12.9502 55.0381 -15.5059 50.5703c-12.6318 -1.98438 -28.8545 -19.7852 -37.6172 -27.877
c-18.3867 -16.9805 -35.3789 -35.502 -50.8154 -55.2031c-25.0039 -31.9082 -45.6553 -67.0312 -61.7207 -104.185c-5.36816 -17.9766 -10.6436 -35.9727 -15.835 -53.9805c-3.44824 -11.9658 -24.9424 -11.4375 -21.8428 2.37891
c25.3721 113.1 58.8203 224.207 104.307 330.938c44.624 104.713 100.459 210.659 175.999 296.636c12.3066 14.0039 35.582 -0.352539 23.4131 -16.6436c-68.1299 -91.2109 -126.019 -185.697 -171.19 -290.46c-28.5859 -66.2949 -52.751 -134.417 -74.6514 -203.252
c15.5244 25.5596 33.4131 49.6973 53.6357 72.0342c18.8008 20.7705 85.6553 98.3145 110.781 46.8164c4.82422 -9.88477 6.41406 -22.5898 6.02734 -35.6855c27.3564 12.1797 56.0273 21.8311 84.5518 31.168zM104.717 99.1504
c18.1611 11.6436 28.3809 30.6855 34.6064 50.7773c-11.0342 -6.58203 -21.6621 -13.8691 -31.6855 -22.1416c-7.55957 -6.2373 -26.3604 -20.666 -29.3799 -30.915c-4.32227 -3.22266 -3.8125 -5.66309 1.52441 -7.32617c3.17285 0.386719 6.25684 1.11426 9.24902 2.17969
c5.57422 1.75488 10.7656 4.27246 15.6855 7.42578z" />
    <glyph glyph-name="c" unicode="c" horiz-adv-x="268" 
d="M292.996 220.829c4.89258 5.63965 14.7441 -0.402344 9.43359 -6.70508c-34.4902 -40.9463 -69.249 -81.6553 -104.008 -122.368c-27.9805 -32.7773 -55.4092 -66.5205 -88.4248 -94.4551c-25.2295 -21.3525 -56.9648 -43.5322 -91.2715 -45.1494
c-29.7432 -1.39844 -50.3027 21.582 -56.8506 48.7695c-17.6396 73.2412 14.0537 156.321 51.0732 218.437c19.0078 31.8926 41.0996 63.1074 68.2031 88.6514c21.6855 20.4365 53.0186 46.2334 83.8916 49.3945c77.5244 7.93066 -3.14648 -144.127 -16.9355 -169.097
c-4.93457 -8.93848 -20.8652 -4.61621 -15.9648 5.91992c15.9883 34.3906 33.7969 68.3135 41.5898 105.75c1.37891 6.625 6.4707 21.6709 3.14551 27.3262c-6.25684 10.6396 -17.9043 3.38281 -24.9082 -0.74707c-14.2646 -8.41406 -27.2881 -18.7822 -39.3955 -30.043
c-42.7812 -39.7891 -76.2754 -91.0459 -99.3174 -144.536c-12.5635 -29.165 -21.4521 -60.4258 -25.0771 -92.0117c-2.8584 -24.8965 -7.37598 -65.1689 12.6123 -84.4873c26.3945 -25.5098 69.7354 6.44824 91.7588 23.5518
c24.624 19.1299 45.8311 42.2217 66.2529 65.6699c45.0693 51.7471 89.2266 104.295 134.192 156.13z" />
    <glyph glyph-name="d" unicode="d" horiz-adv-x="257" 
d="M392.362 617.021c9.77734 -5.24121 10.0342 -15.4521 8.07227 -25.207c-7.24512 -36.249 -25.3564 -71.5322 -41.9121 -104.21c-18.4824 -36.4863 -37.8613 -72.54 -57.5625 -108.379c-29.3223 -53.3447 -59.165 -106.586 -91.0352 -158.517
c-18.8125 -72.9424 -83.8926 -349.931 -7.29883 -349.11c7.01953 0.0761719 5.45215 -10.6328 -0.873047 -10.8555c-32.1797 -1.12598 -45.9385 29.7129 -51.7773 57.0234c-9.0918 42.5283 -4.25684 88.1758 -0.336914 131.064
c3.0459 33.3486 7.70508 66.6592 13.7852 99.7432c-14.4023 -21.1035 -29.3486 -41.8389 -45.1338 -61.9229c-22.0039 -27.9922 -45.0576 -56.7656 -73.709 -78.2939c-20.9697 -15.7588 -53.6709 -33.8701 -79.1611 -17.1533
c-25.1299 16.4824 -23.8389 49.2715 -17.3789 74.999c14.6816 58.4824 53.3447 110.965 104.651 142.62c22.835 14.084 52.0723 28.624 79.6201 21.4131c20.8848 -5.46777 30.9805 -21.4258 36.9111 -39.7285c1.39844 2.17285 2.77344 4.36426 4.16016 6.54785
c8.62109 38.0234 19.0498 75.625 31.0117 112.51c23.3223 71.9199 51.2959 144.41 89.0967 210.062c17.6748 30.6973 38.2959 60.0459 63.79 84.7891c8.92676 8.66309 21.8154 19.7129 35.0801 12.6055zM142.788 150.745c3.36816 4.87402 6.6748 9.78418 9.97363 14.7002
c-0.0800781 0.291016 -0.199219 0.543945 -0.256836 0.854492c-3.05371 16.1992 -7.17676 37.4141 -24.667 44.1113c-14.7627 5.65137 -32.3447 -0.74707 -45.8311 -7.0498c-26.6211 -12.4365 -50.292 -31.4941 -69.3613 -53.7275
c-19.2949 -22.502 -34.0996 -48.9619 -42.7627 -77.3369c-4.88086 -15.9922 -9.91504 -35.3145 -3.30957 -51.5059c10.6973 -26.2227 37.9424 -17.4023 56.498 -5.68164c49.6055 31.3369 86.9199 88.1836 119.717 135.636zM376.956 587.513
c0.0419922 0.199219 0.0791016 0.398438 0.117188 0.597656c-2.56348 -2.77051 -5.05762 -5.64062 -7.48633 -8.50684c-4.25293 -5.01953 -8.36426 -10.1729 -12.334 -15.418c-35.6279 -47.0381 -60.9502 -102.188 -83.8809 -156.26
c-15.9541 -37.6172 -30.0615 -76.0195 -42.4863 -114.958c2.01172 3.50195 4.02734 7.00391 6.02734 10.5098c31.1836 54.6709 61.5205 109.836 90.4863 165.717c14.4717 27.9121 29.2266 55.9277 39.8936 85.5713c2.69727 7.49414 5.21094 15.0996 7.26855 22.793
c0.842773 3.1416 1.19922 6.95801 2.39453 9.9541z" />
    <glyph glyph-name="e" unicode="e" horiz-adv-x="244" 
d="M267.717 215.105c4.90039 5.20312 14.5068 -0.667969 9.07812 -6.44922c-63.5059 -67.7812 -109.153 -151.329 -178.372 -213.9c-23.498 -21.2412 -55.0693 -39.3447 -87.7666 -28.6973c-34.3066 11.1689 -45.0312 50.5752 -46.8857 82.709
c-4.50977 78.1611 31.0801 158.954 77.4863 220.076c22.1191 29.1338 49.6172 59.8926 82.0156 77.7695c23.4678 12.9502 67.7129 20.5977 73.8818 -15.9424c5.08008 -30.0996 -21.9463 -54.4326 -46.6934 -65.3252c-25.4102 -11.1836 -55.6631 -13.9502 -82.6016 -7.02637
c-20.3945 -26.2256 -37.1797 -55.4092 -49.8652 -85.5586c-11.5596 -27.4678 -19.9316 -56.4912 -24.2002 -85.9971c-4.16895 -28.8086 -6.27637 -68.5859 10.8613 -94.1377c42.1455 -62.8232 128.759 54.0234 153.567 85.541
c36.1758 45.9541 69.3213 94.2568 109.494 136.938zM118.469 310.507c-13.0615 -10.6436 -25.2334 -22.4873 -36.5059 -35.2002c23.5518 -2.82715 49.1035 0.724609 68.9883 13.6943c9.53223 6.21484 27.3906 24.1533 19.7314 37.418
c-10.1875 17.6553 -43.3672 -8.70898 -52.2139 -15.9121z" />
    <glyph glyph-name="e" unicode="&#xeb;" horiz-adv-x="244" 
d="M267.717 215.105c4.90039 5.20312 14.5068 -0.667969 9.07812 -6.44922c-63.5059 -67.7812 -109.153 -151.329 -178.372 -213.9c-23.498 -21.2412 -55.0693 -39.3447 -87.7666 -28.6973c-34.3066 11.1689 -45.0312 50.5752 -46.8857 82.709
c-4.50977 78.1611 31.0801 158.954 77.4863 220.076c22.1191 29.1338 49.6172 59.8926 82.0156 77.7695c23.4678 12.9502 67.7129 20.5977 73.8818 -15.9424c5.08008 -30.0996 -21.9463 -54.4326 -46.6934 -65.3252c-25.4102 -11.1836 -55.6631 -13.9502 -82.6016 -7.02637
c-20.3945 -26.2256 -37.1797 -55.4092 -49.8652 -85.5586c-11.5596 -27.4678 -19.9316 -56.4912 -24.2002 -85.9971c-4.16895 -28.8086 -6.27637 -68.5859 10.8613 -94.1377c42.1455 -62.8232 128.759 54.0234 153.567 85.541
c36.1758 45.9541 69.3213 94.2568 109.494 136.938zM118.469 310.507c-13.0615 -10.6436 -25.2334 -22.4873 -36.5059 -35.2002c23.5518 -2.82715 49.1035 0.724609 68.9883 13.6943c9.53223 6.21484 27.3906 24.1533 19.7314 37.418
c-10.1875 17.6553 -43.3672 -8.70898 -52.2139 -15.9121z" />
    <glyph glyph-name="e" unicode="&#xea;" horiz-adv-x="244" 
d="M267.717 215.105c4.90039 5.20312 14.5068 -0.667969 9.07812 -6.44922c-63.5059 -67.7812 -109.153 -151.329 -178.372 -213.9c-23.498 -21.2412 -55.0693 -39.3447 -87.7666 -28.6973c-34.3066 11.1689 -45.0312 50.5752 -46.8857 82.709
c-4.50977 78.1611 31.0801 158.954 77.4863 220.076c22.1191 29.1338 49.6172 59.8926 82.0156 77.7695c23.4678 12.9502 67.7129 20.5977 73.8818 -15.9424c5.08008 -30.0996 -21.9463 -54.4326 -46.6934 -65.3252c-25.4102 -11.1836 -55.6631 -13.9502 -82.6016 -7.02637
c-20.3945 -26.2256 -37.1797 -55.4092 -49.8652 -85.5586c-11.5596 -27.4678 -19.9316 -56.4912 -24.2002 -85.9971c-4.16895 -28.8086 -6.27637 -68.5859 10.8613 -94.1377c42.1455 -62.8232 128.759 54.0234 153.567 85.541
c36.1758 45.9541 69.3213 94.2568 109.494 136.938zM118.469 310.507c-13.0615 -10.6436 -25.2334 -22.4873 -36.5059 -35.2002c23.5518 -2.82715 49.1035 0.724609 68.9883 13.6943c9.53223 6.21484 27.3906 24.1533 19.7314 37.418
c-10.1875 17.6553 -43.3672 -8.70898 -52.2139 -15.9121z" />
    <glyph glyph-name="e" unicode="&#xe9;" horiz-adv-x="244" 
d="M267.717 215.105c4.90039 5.20312 14.5068 -0.667969 9.07812 -6.44922c-63.5059 -67.7812 -109.153 -151.329 -178.372 -213.9c-23.498 -21.2412 -55.0693 -39.3447 -87.7666 -28.6973c-34.3066 11.1689 -45.0312 50.5752 -46.8857 82.709
c-4.50977 78.1611 31.0801 158.954 77.4863 220.076c22.1191 29.1338 49.6172 59.8926 82.0156 77.7695c23.4678 12.9502 67.7129 20.5977 73.8818 -15.9424c5.08008 -30.0996 -21.9463 -54.4326 -46.6934 -65.3252c-25.4102 -11.1836 -55.6631 -13.9502 -82.6016 -7.02637
c-20.3945 -26.2256 -37.1797 -55.4092 -49.8652 -85.5586c-11.5596 -27.4678 -19.9316 -56.4912 -24.2002 -85.9971c-4.16895 -28.8086 -6.27637 -68.5859 10.8613 -94.1377c42.1455 -62.8232 128.759 54.0234 153.567 85.541
c36.1758 45.9541 69.3213 94.2568 109.494 136.938zM118.469 310.507c-13.0615 -10.6436 -25.2334 -22.4873 -36.5059 -35.2002c23.5518 -2.82715 49.1035 0.724609 68.9883 13.6943c9.53223 6.21484 27.3906 24.1533 19.7314 37.418
c-10.1875 17.6553 -43.3672 -8.70898 -52.2139 -15.9121z" />
    <glyph glyph-name="f" unicode="f" horiz-adv-x="243" 
d="M273.772 225.224c7.68945 2.91602 11.665 -7.53809 4.0752 -10.6221c-91.4902 -37.1689 -183.437 -73.1807 -271.114 -118.181c-3.69727 -9.77734 -7.31836 -19.5781 -10.8467 -29.417c20.0264 0.55957 39.7617 -1.36035 58.1562 -8.52539
c34.2373 -13.3369 55.0078 -43.498 52.9697 -80.5244c-1.95801 -35.6094 -23.0078 -67.4639 -44.8008 -94.3838c-21.5059 -26.5713 -49.8125 -53.2568 -82.4678 -65.2227c-29.6133 -10.8506 -56.5254 3.47852 -60.79 35.1455
c-5.09961 37.8848 6.44043 81.3213 15.6699 117.735c6.69727 26.4248 14.3145 52.7197 22.5791 78.8926c-16.0996 -1.73926 -31.1611 -3.98047 -43.4639 -5.50488c-6.61719 -0.820312 -10.3262 7.57812 -4.3418 11.3057c20.1953 12.5859 40.7627 24.5127 61.6094 35.9268
c44.7891 128.969 106.62 253.846 175.184 369.968c9.78516 16.5674 40.7734 8.27637 30.3486 -11.2559c-37.9385 -71.0762 -76.9082 -141.337 -110.87 -214.467c-18.624 -40.1074 -36.0918 -80.7168 -52.1377 -121.886c84.1494 42.5713 172.222 77.6709 260.241 111.016z
M-56.8496 61.5625c6.11523 0.900391 12.2871 1.76953 18.4902 2.5625c1.08008 3.30664 2.19922 6.60938 3.30273 9.91211c-7.29883 -4.08008 -14.5674 -8.2373 -21.793 -12.4746zM93.0957 -17.959c-0.0078125 60.5859 -50.6914 71.9658 -102.301 70.502
c-1.94629 -5.58203 -3.91211 -11.1602 -5.80078 -16.7656c-11.3145 -33.5596 -21.8887 -67.4717 -29.6592 -102.046c-4.12598 -18.3564 -7.6084 -36.9004 -9.58496 -55.6172c-1.22949 -11.6475 -3.96875 -32.9727 7.14258 -41.0957
c16.7744 -12.2568 46.3604 6.83887 59.9502 16.5059c13.0654 9.29102 24.3838 20.6094 34.7168 32.8203c22.3789 26.4443 45.54 59.624 45.5361 95.6963z" />
    <glyph glyph-name="g" unicode="g" horiz-adv-x="288" 
d="M314.541 224.71c5.0918 5.27246 14.9697 -0.704102 9.35645 -6.64648c-56.7734 -60.0225 -123.728 -107.425 -193.747 -150.425c-11.1377 -29.1572 -23.0039 -58.0078 -35.8203 -86.4141c-19.7744 -43.8164 -41.6445 -87.4062 -69.1084 -126.974
c-22.4521 -32.3447 -50.4326 -66.3789 -86.7734 -83.6123c-25.9082 -12.2832 -63.2109 -12.2949 -78.7705 16.3105c-18 33.0957 10.3984 81.3027 28.9004 108.034c49.3184 71.2529 125.023 117.034 198.089 160.444c3.87695 2.30664 7.73926 4.62109 11.6016 6.93945
c21.2529 57.7969 39.123 116.655 56.8545 175.578c-22.2109 -40.2949 -47.4482 -79.6436 -80.9043 -109.444c-16.7773 -14.9424 -40.3057 -32.2793 -64.2822 -29.6543c-22.8848 2.50586 -29.1641 24.6172 -27.1377 44.5176c5.66309 55.6514 43.5791 109.422 87.6709 141.854
c20.8545 15.3369 47.8887 28.5166 73.7656 17.7393c9.26465 -3.8584 16.6865 -10.1729 22.0088 -17.8779c2.46777 4.625 4.92773 9.25 7.37988 13.8779c0.540039 1.7627 1.07227 3.5293 1.61621 5.29199c5.08398 16.4561 35.4092 15.3906 30.1641 -3.28711
c-20.249 -72.1299 -42.2109 -144.279 -68.2842 -214.77c63.7773 40.0576 124.628 83.8311 177.421 138.517zM103.772 181.32c16.502 22.8242 31.082 46.9307 44.8594 71.4941c-2.20703 23.2334 -22.5361 35.1182 -45.4326 24.3096
c-18.2148 -8.59766 -34.4336 -23.7207 -47.7061 -38.583c-23.7393 -26.5859 -45.5859 -64.0684 -49.0996 -100.264c-1.64355 -16.9268 6.74316 -29.6475 27.0078 -22.7168c9.7168 3.32227 19.1455 10.9395 26.9922 17.3496c16.835 13.7549 30.6973 30.8662 43.3789 48.4102z
M-23.8955 -178.312c52.8545 63.498 86.4258 145.967 115.541 222.779c-60.1299 -35.7969 -121.176 -72.6436 -167.938 -125.414c-14.1338 -15.9502 -27.0498 -33.1836 -37.1689 -51.9805c-10.0996 -18.7705 -24.418 -49.0117 -15.7705 -70.6016
c9.93848 -24.8203 42.207 -24.8936 62.1455 -14.2041c17.2148 9.22949 30.8428 24.5859 43.1914 39.4209z" />
    <glyph glyph-name="h" unicode="h" horiz-adv-x="237" 
d="M266.648 226.779c8.21875 3.98438 12.4121 -7.70703 4.5 -11.7109c-47.6592 -24.0762 -73.7627 -75.0645 -120.215 -100.489c-12.3105 -6.73535 -37.9082 -15.5205 -45.3604 2.3457c-7.88477 18.9004 10.165 50.9307 16.8818 68.7236
c5.34863 14.1758 10.3721 28.5781 13.3301 43.4746c0.808594 4.06934 4.56738 15.2266 1.85449 19.0078c-8.70508 12.123 -25.3184 -5.55859 -30.6133 -10.6201c-21.9043 -20.9346 -38.9121 -47.084 -54.334 -72.9541c-26.1494 -43.873 -48.8662 -89.7656 -68.5938 -136.873
c-3.25684 -13.0957 -6.43262 -26.2188 -9.54004 -39.3838c-3.21484 -13.6055 -26.6553 -12.6934 -24.1572 2.63574c35.1992 215.915 123.693 429.792 242.666 612.758c9.8584 15.165 39.6787 6.96191 28.6553 -10.624
c-57.9121 -92.3945 -108.966 -188.532 -150.107 -289.602c-27.3828 -67.2754 -49.7012 -135.766 -68.9961 -205.306c13.7812 28.1689 28.8076 55.7129 45.3291 82.2988c15.1377 24.3564 31.9883 48.9658 53.4248 68.2451c11.0732 9.95801 30.4062 25.6328 45.7852 15.2002
c16.5859 -11.2529 12.1533 -40.042 8.66309 -56.249c-3.1875 -14.7969 -8.67773 -29.0381 -13.6318 -43.3027c-2.85449 -8.21094 -5.66309 -16.4561 -7.80859 -24.8887c-2.00781 -7.90039 -7.75488 -15.3184 6.0957 -12.5293
c13.5977 2.73926 29.333 18.9961 39.0459 27.9922c9.98828 9.25293 19.3867 19.1074 29.1338 28.6055c17.5361 17.084 35.8311 32.4941 57.9922 43.2451z" />
    <glyph glyph-name="i" unicode="i" horiz-adv-x="213" 
d="M237.505 222.811c5.0459 5.88477 15.3438 -0.46582 9.78809 -6.95605c-45.0342 -52.6973 -82.4629 -111.165 -125.455 -165.448c-20.0342 -25.2949 -41.3252 -49.7852 -65.0762 -71.6855c-18.0459 -16.6396 -42.5703 -34.0186 -68.6816 -26.6963
c-58.9844 16.54 -32.8193 116.762 -20.8848 156.386c21.4717 71.291 59.9541 135.835 99.5059 198.363c10.4404 16.498 42.4746 7.70898 30.877 -11.4521c-31.6631 -52.3066 -64.3369 -104.127 -87.4707 -160.958c-11.2373 -27.6133 -62.0918 -165.027 -4.66309 -169.878
c29.3447 -2.47852 59.8232 38.8965 77.2754 58.4248c18.6816 20.9043 35.9648 43.0195 52.7236 65.4834c33.6514 45.1113 65.3906 91.6396 102.062 134.417zM102.814 354.514c-3.71289 -4.0918 -13.4482 -2.60449 -11.6592 4.33008
c5.30273 20.5635 16.7549 39.5898 26.6514 58.2217c6.19922 11.6709 27.624 5.16895 20.4053 -7.57031c-10.6357 -18.7705 -20.8154 -38.9082 -35.3975 -54.9814z" />
    <glyph glyph-name="i" unicode="&#xef;" horiz-adv-x="213" 
d="M237.505 222.811c5.0459 5.88477 15.3438 -0.46582 9.78809 -6.95605c-45.0342 -52.6973 -82.4629 -111.165 -125.455 -165.448c-20.0342 -25.2949 -41.3252 -49.7852 -65.0762 -71.6855c-18.0459 -16.6396 -42.5703 -34.0186 -68.6816 -26.6963
c-58.9844 16.54 -32.8193 116.762 -20.8848 156.386c21.4717 71.291 59.9541 135.835 99.5059 198.363c10.4404 16.498 42.4746 7.70898 30.877 -11.4521c-31.6631 -52.3066 -64.3369 -104.127 -87.4707 -160.958c-11.2373 -27.6133 -62.0918 -165.027 -4.66309 -169.878
c29.3447 -2.47852 59.8232 38.8965 77.2754 58.4248c18.6816 20.9043 35.9648 43.0195 52.7236 65.4834c33.6514 45.1113 65.3906 91.6396 102.062 134.417zM102.814 354.514c-3.71289 -4.0918 -13.4482 -2.60449 -11.6592 4.33008
c5.30273 20.5635 16.7549 39.5898 26.6514 58.2217c6.19922 11.6709 27.624 5.16895 20.4053 -7.57031c-10.6357 -18.7705 -20.8154 -38.9082 -35.3975 -54.9814z" />
    <glyph glyph-name="i" unicode="&#xee;" horiz-adv-x="213" 
d="M237.505 222.811c5.0459 5.88477 15.3438 -0.46582 9.78809 -6.95605c-45.0342 -52.6973 -82.4629 -111.165 -125.455 -165.448c-20.0342 -25.2949 -41.3252 -49.7852 -65.0762 -71.6855c-18.0459 -16.6396 -42.5703 -34.0186 -68.6816 -26.6963
c-58.9844 16.54 -32.8193 116.762 -20.8848 156.386c21.4717 71.291 59.9541 135.835 99.5059 198.363c10.4404 16.498 42.4746 7.70898 30.877 -11.4521c-31.6631 -52.3066 -64.3369 -104.127 -87.4707 -160.958c-11.2373 -27.6133 -62.0918 -165.027 -4.66309 -169.878
c29.3447 -2.47852 59.8232 38.8965 77.2754 58.4248c18.6816 20.9043 35.9648 43.0195 52.7236 65.4834c33.6514 45.1113 65.3906 91.6396 102.062 134.417zM102.814 354.514c-3.71289 -4.0918 -13.4482 -2.60449 -11.6592 4.33008
c5.30273 20.5635 16.7549 39.5898 26.6514 58.2217c6.19922 11.6709 27.624 5.16895 20.4053 -7.57031c-10.6357 -18.7705 -20.8154 -38.9082 -35.3975 -54.9814z" />
    <glyph glyph-name="i" unicode="&#xed;" horiz-adv-x="213" 
d="M237.505 222.811c5.0459 5.88477 15.3438 -0.46582 9.78809 -6.95605c-45.0342 -52.6973 -82.4629 -111.165 -125.455 -165.448c-20.0342 -25.2949 -41.3252 -49.7852 -65.0762 -71.6855c-18.0459 -16.6396 -42.5703 -34.0186 -68.6816 -26.6963
c-58.9844 16.54 -32.8193 116.762 -20.8848 156.386c21.4717 71.291 59.9541 135.835 99.5059 198.363c10.4404 16.498 42.4746 7.70898 30.877 -11.4521c-31.6631 -52.3066 -64.3369 -104.127 -87.4707 -160.958c-11.2373 -27.6133 -62.0918 -165.027 -4.66309 -169.878
c29.3447 -2.47852 59.8232 38.8965 77.2754 58.4248c18.6816 20.9043 35.9648 43.0195 52.7236 65.4834c33.6514 45.1113 65.3906 91.6396 102.062 134.417zM102.814 354.514c-3.71289 -4.0918 -13.4482 -2.60449 -11.6592 4.33008
c5.30273 20.5635 16.7549 39.5898 26.6514 58.2217c6.19922 11.6709 27.624 5.16895 20.4053 -7.57031c-10.6357 -18.7705 -20.8154 -38.9082 -35.3975 -54.9814z" />
    <glyph glyph-name="j" unicode="j" horiz-adv-x="170" 
d="M199.092 226.144c4.58594 5.56348 13.9922 -0.266602 9.08008 -6.4541c-24.9238 -31.418 -59.4141 -50.625 -94.3447 -69.0312c-34.6709 -18.2686 -69.1953 -36.8623 -102.751 -57.1074c-15.7588 -42.2148 -32.0918 -84.1953 -49.3643 -125.763
c-18.9883 -45.7012 -39.5898 -90.9463 -64.9424 -133.521c-20.6777 -34.7207 -47.7471 -74.46 -84.502 -93.6553c-30.4062 -15.8809 -62.8506 -7.14941 -69.5098 28.9385c-7.6709 41.5674 14.6777 87.2842 34.5586 122.392c44.0078 77.7168 112 137.092 185.624 185.9
c3.62109 2.39844 7.27637 4.74316 10.9277 7.0918c25.8965 71.4404 50.8428 143.211 76.1719 214.862c6.30664 17.8428 40.0693 16.2949 33.1689 -3.61719c-21.3369 -61.5742 -42.8311 -123.226 -65.4209 -184.451c22.9238 13.3184 46.2344 25.9893 69.6865 38.3457
c39.9736 21.0576 82.2686 40.4678 111.617 76.0693zM-42.0693 41.1982c2.9541 7.98438 5.81934 15.998 8.74316 23.9902c-61.3906 -41.7773 -118.168 -92.6279 -158.889 -155.003c-22.8965 -35.0693 -47.1377 -78.1992 -48.2373 -121.016
c-0.268555 -10.4941 0.494141 -23.333 7.30273 -32.0107c10.2373 -13.0459 27.6621 -7.39844 39.3555 0.268555c16.1455 10.5859 29.4023 27 40.4756 42.6094c50.6816 71.4443 81.0996 159.663 111.249 241.161zM84.7148 357.093
c-4.24512 -10.8467 -26.1836 -7.07617 -21.8008 5.10352c6 16.6592 13.0498 32.7588 22.0303 48.0381c7.10352 12.084 29.8848 5.48633 21.8887 -8.11914c-8.51758 -14.4824 -15.9922 -29.3711 -22.1182 -45.0225z" />
    <glyph glyph-name="k" unicode="k" horiz-adv-x="286" 
d="M309.547 215.572c4.39453 5.72754 13.8193 -0.15918 9.07617 -6.4541c-26.5596 -35.2646 -53.4795 -70.3369 -83.4062 -102.847c-24.8926 -27.042 -52.6357 -57.3828 -86.417 -73.2793c-31.7236 -14.9268 -70.9805 -16.1299 -100.475 4.42578
c-21.9736 15.3105 -35.0771 38.0693 -44.4951 62.418c-2.53223 -4.7168 -4.98438 -9.50586 -7.2373 -14.3184c-15.3984 -49.9658 -28.9043 -100.529 -40.6934 -151.483c-3.31445 -14.333 -28.5098 -13.2754 -25.4258 2.77051
c23.2754 121.115 60.6738 239.062 108.988 352.486c48.1533 113.05 106.824 223.709 178.832 323.479c9.66309 13.3906 36.7207 1.4668 26.5869 -13.9893c-66.5674 -101.54 -127.334 -205.36 -175.878 -316.866c-17.5898 -40.4102 -33.6016 -81.46 -48.207 -123.004
c13.8008 25.5713 28.7666 50.5098 45.502 74.2803c18.6172 26.4365 39.1953 52.4365 63.9541 73.4287c17.4482 14.7969 44.3643 34.5742 68.8857 30.5479c23.7354 -3.89648 25.2334 -27.8545 19.6738 -46.9736c-8.63184 -29.6777 -29.0264 -53.0879 -50.7432 -74.2568
c-39.2949 -38.2988 -87.7354 -70.0459 -139.647 -89.6172c7.80078 -26.1191 17.4785 -52.5713 37.8271 -71.1494c31.4521 -28.7168 71.874 -19.0156 102.729 4.73926c55.0957 42.4219 98.5859 100.908 140.57 155.663zM59.0947 199.409
c-9.08398 -14.4785 -17.5752 -29.3174 -25.7051 -44.3477c34.1416 13.6895 66.375 30.873 96.2637 53.6123c21.0615 16.0234 41.6055 33.7363 58.2227 54.4453c8.93066 11.1299 18.2178 25.0068 19.9766 39.6006c1.78125 14.7627 -11.874 24.709 -26.0928 20.6055
c-5.2334 -1.50977 -10.1641 -4.07324 -14.9609 -6.58301c-46.4287 -24.291 -80.5625 -74.0723 -107.704 -117.333z" />
    <glyph glyph-name="l" unicode="l" horiz-adv-x="215" 
d="M237.02 216.473c3.67773 5.26855 14.1182 0.648438 10.3135 -5.43164c-46.2646 -74.1836 -94.793 -148.291 -146.938 -218.486c-22.9199 -30.8545 -85.6016 -118.725 -117.229 -47.4951c-28.2725 63.6777 -10.4141 147.49 5.33301 211.942
c35.2227 144.161 95.5674 287.372 170.793 415.111c9.20312 15.624 38.4678 7.68555 28.5518 -10.5869c-34.7236 -63.9766 -67.6465 -128.808 -95.9297 -195.923c-25.7168 -61.0264 -48.6748 -123.559 -66.4561 -187.382
c-17.418 -62.5283 -31.6592 -130.467 -25.583 -195.692c1.18359 -12.7051 1.9502 -36.4141 12.1611 -46.1807c16.5361 -15.8125 42.9424 19.2568 51.6895 29.7666c22.0654 26.5098 42.0732 54.9004 61.6592 83.2646c38.0615 55.1152 73.3066 112.173 111.636 167.093z" />
    <glyph glyph-name="m" unicode="m" horiz-adv-x="370" 
d="M394.623 214.733c5.82715 4.98438 12.9268 -3.47656 6.87695 -8.67578c-50.8887 -43.7236 -83.9004 -103.391 -129.628 -151.889c-14.2188 -15.0801 -33.207 -35.9189 -56.3184 -25.2871c-26.6172 12.2412 -13.5439 50.6553 -8.01953 71.5557
c9.06152 34.2793 22.3223 67.2676 34.2568 100.604c5.42188 15.1494 10.6787 30.2725 15.1465 45.7285c1.99219 6.89648 12.2217 24.4209 -1.95117 25.3672c-5.0459 0.333008 -16.9424 -14.4678 -20.8545 -18.2725c-45.5322 -44.2832 -78.5439 -99.0146 -110.107 -153.704
c-3.87695 -9.94629 -7.73926 -19.7627 -11.4023 -29.4141c-6.54785 -17.2412 -36.3721 -8.55176 -28.6553 10.6279c18.3789 45.6895 36.8535 91.3906 50.8691 138.655c2.91992 9.84668 9.59082 28.2754 6.49121 38.2598c-5.11523 16.4785 -18.2383 8.29492 -28.752 0.55957
c-16.4785 -12.123 -29.3945 -29.5059 -41.4746 -45.8008c-50.8965 -68.6592 -82.2754 -149.219 -109.793 -229.521c-0.195312 -1.87402 -0.225586 -3.53711 -0.0566406 -4.90918c4.58594 -1.41016 6.50977 -6.88477 1.51367 -10.9805
c-4.35645 -3.57129 -6.87402 -4.01953 -12.46 -3.20312c-3.07617 0.452148 -5.92285 2.0918 -7.08008 5.12598c-4.59766 12.0654 -0.157227 26.9658 1.88867 39.249c2.58984 15.5596 5.85449 31.0342 9.50586 46.375c7.31836 30.7588 16.8359 60.9385 27.9473 90.5361
c23.5244 62.6738 53.6436 122.938 88.0801 180.299c9.10742 15.1689 37.8848 7.14941 27.8086 -10.3145c-30.6709 -53.1572 -59.7246 -107.211 -83.2764 -163.95c-2.7168 -6.54785 -5.35254 -13.126 -7.93457 -19.7236c22.1035 44.5938 49.1152 91.4561 85.2529 126.03
c11.3828 10.8926 29.1143 25.9883 46.3369 24c20.9883 -2.42188 23.1416 -28.4453 22.2871 -44.9932c-1.35254 -26.2568 -7.625 -52.6436 -15.9121 -78.6172c21.207 34 44.4062 66.6895 72.3564 95.5059c11.0234 11.3643 34.9697 41.0039 54.3799 33.8428
c21.6514 -7.98828 7.88477 -52.0078 4.50195 -66.916c-7.8125 -34.3984 -21.0732 -67.1836 -31.2383 -100.896c-5.24512 -17.3984 -9.59766 -35.0117 -12.6318 -52.9355c-0.724609 -3.87402 -1.32617 -7.7666 -1.80469 -11.6787
c5.11133 -8.77441 10.7705 -9.85449 16.9775 -3.24121c7.84277 5.30273 14.5479 12.667 21.0801 19.4717c44.1338 45.9736 77.0459 101.448 125.793 143.13z" />
    <glyph glyph-name="n" unicode="n" horiz-adv-x="310" 
d="M329.583 209.262c5.82031 5.44824 16.7441 -1.16113 10.2422 -7.27637c-46.3604 -43.582 -74.1914 -103.602 -122.261 -145.337c-16.165 -14.0303 -38.0117 -29.21 -60.5791 -26.041c-20.7275 2.91211 -35.5781 20.3721 -38.3096 40.6973
c-3.79297 28.249 11.0381 60.0195 20.873 85.8965c11.3486 29.8623 24.3105 59.1152 33.2949 89.8242c2.39062 8.16895 7.9502 21.0117 5.37891 29.3906c-3.07617 10.0264 -20.793 6.6084 -28.3789 1.05664c-12.6318 -9.24902 -24.0459 -20.0234 -34.6279 -31.5371
c-21.1992 -23.0615 -39.7129 -48.8701 -56.9424 -74.9814c-32.6592 -49.4902 -59.6211 -102.41 -81.085 -157.667c-0.382812 -0.984375 -0.960938 -1.74707 -1.63867 -2.33691c-0.689453 -3.07617 -1.40625 -6.14551 -2.07324 -9.22949
c-3.1875 -14.7393 -29.1182 -13.5479 -26.0029 2.83496c20.9346 110.191 56.6318 216.616 106.057 317.294c7.9082 16.1113 36.6816 7.69727 27.8076 -10.3145c-36.3643 -73.8232 -65.7744 -150.777 -88.0039 -229.881c19.1689 39.5977 41.3486 77.6855 66.6357 113.823
c16.4326 23.4863 33.7695 46.7617 54.0684 67.084c14.0693 14.084 35.1885 36.7656 56.5293 37.8887c51.0615 2.68945 14.0312 -99.0537 6.98926 -119.862c-10.1377 -29.9463 -22.4131 -59.7168 -27.9844 -90.9814c-1.77441 -9.9541 -3.7207 -21.8008 0.287109 -31.4941
c5.67773 -13.7354 18.9844 -14.0039 32.4131 -9.91602c14.6318 4.45996 28.4824 18.6709 38.7969 29.4102c39.5361 41.1729 66.6592 92.4639 108.514 131.655z" />
    <glyph glyph-name="o" unicode="o" horiz-adv-x="250" 
d="M276.151 216.305c7.13379 3.89258 15.1641 -5.17969 7.47852 -9.43262c-41.8047 -23.0879 -97.625 -25.375 -145.506 -21.582c-5.66309 -13.5859 -11.3906 -25.8389 -16.2217 -35.7354c-20.2295 -41.4287 -44.9385 -81.7852 -74.5625 -117.218
c-15.0117 -17.9541 -66.5938 -72.2451 -88.9502 -36.5059c-10.0264 16.0264 -5.44043 40.8926 -2.24512 58.2295c4.57422 24.835 12.1953 49.3174 20.6855 73.0684c11.3721 31.8232 24.8584 63.3213 40.2832 93.6699c-6.82715 5.27246 -12.9805 11.334 -18.1992 18.3457
c-51.5781 69.3213 47.127 149.244 115.438 127.256c70.3682 -22.6475 53.0811 -105.693 28.8896 -168.353c3.68555 -0.283203 7.36719 -0.547852 11.0029 -0.727539c38.5322 -1.89258 87.3291 0.0957031 121.907 18.9844zM104.056 156.176
c4.1377 8.26074 9.42969 18.9209 14.9082 30.9707c-25.207 2.89648 -53.2305 8.06543 -77.4561 19.1768c-11.1074 -21.6016 -21.9736 -43.3105 -31.4678 -65.7852c-14.9805 -35.46 -34.8848 -80.5596 -32.7891 -119.928
c0.360352 -6.77734 -1.16113 -12.6396 6.26758 -13.8125c4.89648 -0.774414 8.78125 2.15234 12.7617 4.62695c8.1416 5.06152 15.498 11.3838 22.3105 18.0889c10.6553 10.4824 19.9043 22.4365 28.8125 34.4062c21.5635 28.9727 40.4834 59.9648 56.6523 92.2559z
M124.612 199.974c23.8311 55.9766 45.1279 132.629 -13.9873 153.506c-35.6211 12.5781 -82.4336 -9.44531 -101.499 -41.085c-16.6396 -27.6094 -4.84668 -56.2871 16.3486 -75.6201c4.68555 8.68945 9.49414 17.3027 14.5137 25.751
c8.22559 13.8389 33.835 7.25293 25.4824 -9.45215c-5.375 -10.7588 -10.8887 -21.4297 -16.4023 -32.0889c23.2109 -11.1533 49.4482 -17.6279 75.5439 -21.0107z" />
    <glyph glyph-name="o" unicode="&#xf6;" horiz-adv-x="250" 
d="M276.151 216.305c7.13379 3.89258 15.1641 -5.17969 7.47852 -9.43262c-41.8047 -23.0879 -97.625 -25.375 -145.506 -21.582c-5.66309 -13.5859 -11.3906 -25.8389 -16.2217 -35.7354c-20.2295 -41.4287 -44.9385 -81.7852 -74.5625 -117.218
c-15.0117 -17.9541 -66.5938 -72.2451 -88.9502 -36.5059c-10.0264 16.0264 -5.44043 40.8926 -2.24512 58.2295c4.57422 24.835 12.1953 49.3174 20.6855 73.0684c11.3721 31.8232 24.8584 63.3213 40.2832 93.6699c-6.82715 5.27246 -12.9805 11.334 -18.1992 18.3457
c-51.5781 69.3213 47.127 149.244 115.438 127.256c70.3682 -22.6475 53.0811 -105.693 28.8896 -168.353c3.68555 -0.283203 7.36719 -0.547852 11.0029 -0.727539c38.5322 -1.89258 87.3291 0.0957031 121.907 18.9844zM104.056 156.176
c4.1377 8.26074 9.42969 18.9209 14.9082 30.9707c-25.207 2.89648 -53.2305 8.06543 -77.4561 19.1768c-11.1074 -21.6016 -21.9736 -43.3105 -31.4678 -65.7852c-14.9805 -35.46 -34.8848 -80.5596 -32.7891 -119.928
c0.360352 -6.77734 -1.16113 -12.6396 6.26758 -13.8125c4.89648 -0.774414 8.78125 2.15234 12.7617 4.62695c8.1416 5.06152 15.498 11.3838 22.3105 18.0889c10.6553 10.4824 19.9043 22.4365 28.8125 34.4062c21.5635 28.9727 40.4834 59.9648 56.6523 92.2559z
M124.612 199.974c23.8311 55.9766 45.1279 132.629 -13.9873 153.506c-35.6211 12.5781 -82.4336 -9.44531 -101.499 -41.085c-16.6396 -27.6094 -4.84668 -56.2871 16.3486 -75.6201c4.68555 8.68945 9.49414 17.3027 14.5137 25.751
c8.22559 13.8389 33.835 7.25293 25.4824 -9.45215c-5.375 -10.7588 -10.8887 -21.4297 -16.4023 -32.0889c23.2109 -11.1533 49.4482 -17.6279 75.5439 -21.0107z" />
    <glyph glyph-name="o" unicode="&#xf5;" horiz-adv-x="250" 
d="M276.151 216.305c7.13379 3.89258 15.1641 -5.17969 7.47852 -9.43262c-41.8047 -23.0879 -97.625 -25.375 -145.506 -21.582c-5.66309 -13.5859 -11.3906 -25.8389 -16.2217 -35.7354c-20.2295 -41.4287 -44.9385 -81.7852 -74.5625 -117.218
c-15.0117 -17.9541 -66.5938 -72.2451 -88.9502 -36.5059c-10.0264 16.0264 -5.44043 40.8926 -2.24512 58.2295c4.57422 24.835 12.1953 49.3174 20.6855 73.0684c11.3721 31.8232 24.8584 63.3213 40.2832 93.6699c-6.82715 5.27246 -12.9805 11.334 -18.1992 18.3457
c-51.5781 69.3213 47.127 149.244 115.438 127.256c70.3682 -22.6475 53.0811 -105.693 28.8896 -168.353c3.68555 -0.283203 7.36719 -0.547852 11.0029 -0.727539c38.5322 -1.89258 87.3291 0.0957031 121.907 18.9844zM104.056 156.176
c4.1377 8.26074 9.42969 18.9209 14.9082 30.9707c-25.207 2.89648 -53.2305 8.06543 -77.4561 19.1768c-11.1074 -21.6016 -21.9736 -43.3105 -31.4678 -65.7852c-14.9805 -35.46 -34.8848 -80.5596 -32.7891 -119.928
c0.360352 -6.77734 -1.16113 -12.6396 6.26758 -13.8125c4.89648 -0.774414 8.78125 2.15234 12.7617 4.62695c8.1416 5.06152 15.498 11.3838 22.3105 18.0889c10.6553 10.4824 19.9043 22.4365 28.8125 34.4062c21.5635 28.9727 40.4834 59.9648 56.6523 92.2559z
M124.612 199.974c23.8311 55.9766 45.1279 132.629 -13.9873 153.506c-35.6211 12.5781 -82.4336 -9.44531 -101.499 -41.085c-16.6396 -27.6094 -4.84668 -56.2871 16.3486 -75.6201c4.68555 8.68945 9.49414 17.3027 14.5137 25.751
c8.22559 13.8389 33.835 7.25293 25.4824 -9.45215c-5.375 -10.7588 -10.8887 -21.4297 -16.4023 -32.0889c23.2109 -11.1533 49.4482 -17.6279 75.5439 -21.0107z" />
    <glyph glyph-name="o" unicode="&#xf4;" horiz-adv-x="250" 
d="M276.151 216.305c7.13379 3.89258 15.1641 -5.17969 7.47852 -9.43262c-41.8047 -23.0879 -97.625 -25.375 -145.506 -21.582c-5.66309 -13.5859 -11.3906 -25.8389 -16.2217 -35.7354c-20.2295 -41.4287 -44.9385 -81.7852 -74.5625 -117.218
c-15.0117 -17.9541 -66.5938 -72.2451 -88.9502 -36.5059c-10.0264 16.0264 -5.44043 40.8926 -2.24512 58.2295c4.57422 24.835 12.1953 49.3174 20.6855 73.0684c11.3721 31.8232 24.8584 63.3213 40.2832 93.6699c-6.82715 5.27246 -12.9805 11.334 -18.1992 18.3457
c-51.5781 69.3213 47.127 149.244 115.438 127.256c70.3682 -22.6475 53.0811 -105.693 28.8896 -168.353c3.68555 -0.283203 7.36719 -0.547852 11.0029 -0.727539c38.5322 -1.89258 87.3291 0.0957031 121.907 18.9844zM104.056 156.176
c4.1377 8.26074 9.42969 18.9209 14.9082 30.9707c-25.207 2.89648 -53.2305 8.06543 -77.4561 19.1768c-11.1074 -21.6016 -21.9736 -43.3105 -31.4678 -65.7852c-14.9805 -35.46 -34.8848 -80.5596 -32.7891 -119.928
c0.360352 -6.77734 -1.16113 -12.6396 6.26758 -13.8125c4.89648 -0.774414 8.78125 2.15234 12.7617 4.62695c8.1416 5.06152 15.498 11.3838 22.3105 18.0889c10.6553 10.4824 19.9043 22.4365 28.8125 34.4062c21.5635 28.9727 40.4834 59.9648 56.6523 92.2559z
M124.612 199.974c23.8311 55.9766 45.1279 132.629 -13.9873 153.506c-35.6211 12.5781 -82.4336 -9.44531 -101.499 -41.085c-16.6396 -27.6094 -4.84668 -56.2871 16.3486 -75.6201c4.68555 8.68945 9.49414 17.3027 14.5137 25.751
c8.22559 13.8389 33.835 7.25293 25.4824 -9.45215c-5.375 -10.7588 -10.8887 -21.4297 -16.4023 -32.0889c23.2109 -11.1533 49.4482 -17.6279 75.5439 -21.0107z" />
    <glyph glyph-name="o" unicode="&#xf3;" horiz-adv-x="250" 
d="M276.151 216.305c7.13379 3.89258 15.1641 -5.17969 7.47852 -9.43262c-41.8047 -23.0879 -97.625 -25.375 -145.506 -21.582c-5.66309 -13.5859 -11.3906 -25.8389 -16.2217 -35.7354c-20.2295 -41.4287 -44.9385 -81.7852 -74.5625 -117.218
c-15.0117 -17.9541 -66.5938 -72.2451 -88.9502 -36.5059c-10.0264 16.0264 -5.44043 40.8926 -2.24512 58.2295c4.57422 24.835 12.1953 49.3174 20.6855 73.0684c11.3721 31.8232 24.8584 63.3213 40.2832 93.6699c-6.82715 5.27246 -12.9805 11.334 -18.1992 18.3457
c-51.5781 69.3213 47.127 149.244 115.438 127.256c70.3682 -22.6475 53.0811 -105.693 28.8896 -168.353c3.68555 -0.283203 7.36719 -0.547852 11.0029 -0.727539c38.5322 -1.89258 87.3291 0.0957031 121.907 18.9844zM104.056 156.176
c4.1377 8.26074 9.42969 18.9209 14.9082 30.9707c-25.207 2.89648 -53.2305 8.06543 -77.4561 19.1768c-11.1074 -21.6016 -21.9736 -43.3105 -31.4678 -65.7852c-14.9805 -35.46 -34.8848 -80.5596 -32.7891 -119.928
c0.360352 -6.77734 -1.16113 -12.6396 6.26758 -13.8125c4.89648 -0.774414 8.78125 2.15234 12.7617 4.62695c8.1416 5.06152 15.498 11.3838 22.3105 18.0889c10.6553 10.4824 19.9043 22.4365 28.8125 34.4062c21.5635 28.9727 40.4834 59.9648 56.6523 92.2559z
M124.612 199.974c23.8311 55.9766 45.1279 132.629 -13.9873 153.506c-35.6211 12.5781 -82.4336 -9.44531 -101.499 -41.085c-16.6396 -27.6094 -4.84668 -56.2871 16.3486 -75.6201c4.68555 8.68945 9.49414 17.3027 14.5137 25.751
c8.22559 13.8389 33.835 7.25293 25.4824 -9.45215c-5.375 -10.7588 -10.8887 -21.4297 -16.4023 -32.0889c23.2109 -11.1533 49.4482 -17.6279 75.5439 -21.0107z" />
    <glyph glyph-name="p" unicode="p" horiz-adv-x="276" 
d="M299.696 202.791c6.29883 3.2832 11.7676 -6.13281 5.61035 -9.81836c-34.0723 -20.3721 -73.1797 -29.1963 -109.716 -43.9971c-2.24121 -0.908203 -4.48242 -1.83887 -6.71973 -2.78125c-3.24512 -6.63184 -6.58984 -13.2031 -10.1533 -19.6475
c-18.8086 -34.0264 -43.6895 -76.2021 -80.2256 -93.6543c-13.7734 -6.57812 -34.0645 -8.48242 -42.0645 7.9541c-6.80469 13.9766 4.36035 30.1562 13.1572 40.2021c24.7236 28.2412 56.6162 49.4668 90.2021 65.8496c12.2686 22.1914 22.7822 45.4326 31.1348 69.2373
c6.53613 18.6211 12.1572 37.5674 16.793 56.7471c1.03809 4.29883 6.84668 19.3447 3.80859 23.3828c-2.1377 2.83887 -14.0146 -0.533203 -16.3477 -1.50977c-5.22949 -2.19141 -9.27148 -7.62793 -13.291 -11.5977
c-27.2295 -26.8887 -49.1875 -59.7119 -69.9463 -91.6465c-87.4062 -134.456 -156.219 -279.935 -221.721 -425.988c-0.850586 -1.89648 -2.43262 -2.92285 -4.14941 -3.26367c-2.75098 -8.61328 -5.69727 -17.1377 -8.7627 -25.6055
c0.103516 -1.01562 -0.0263672 -2.09961 -0.494141 -3.20312c-1.31055 -3.24512 -2.7207 -6.44434 -4.23047 -9.60156c-4.17969 -9.10352 -19.835 -6.42188 -18.2568 4.27539c8.37891 56.7705 28.7539 113.774 45.6084 168.502
c16.4678 53.4717 34.502 106.434 54.7744 158.587c41.0234 105.548 90.1533 210.731 155.701 303.482c8.24902 11.6709 31.4639 1.45215 22.9814 -12.0957c-60.1797 -96.1113 -112.268 -194.954 -154.022 -300.532c-21.0762 -53.2949 -40.0957 -107.417 -57.5977 -161.988
c-6.1416 -19.1494 -11.6279 -38.6475 -17.0957 -58.1797c39.8428 88.126 81.6357 175.383 128.961 259.777c24.2607 43.2646 49.7783 85.9424 77.4453 127.13c22.4219 33.3828 49.2188 78.8193 86.1611 97.7998c36.0342 18.5137 30.8389 -33.6895 27.7734 -52.709
c-5.2793 -32.7588 -15.1758 -64.8008 -28.5283 -95.2607c34.5781 13.0156 70.3057 22.9922 103.21 40.1533zM141.418 116.414c2.08789 3.16895 4.11523 6.3877 6.12695 9.61328c-21.2451 -12.0732 -41.084 -26.5557 -57.582 -44.3867
c-4.22949 -4.57422 -24.1836 -30.1836 -1.80859 -24.4785c6.63965 1.69336 16.2178 12.6699 20.6006 17.1484c12.4102 12.6748 22.9238 27.3262 32.6631 42.1035z" />
    <glyph glyph-name="q" unicode="q" horiz-adv-x="275" 
d="M301.508 221.458c4.96973 5.03809 14.4961 -0.578125 9.08203 -6.45508c-73.3789 -79.6553 -151.345 -155.472 -231.311 -228.763c-3.00781 -8.47461 -6.06934 -16.9307 -8.99316 -25.4365c-1.04199 -3.03418 -2.02637 -6.08789 -3.0459 -9.12598
c12.3564 2.08398 24.7471 2.43262 36.9043 -0.429688c30.2148 -7.11133 46.1533 -31.8848 43.916 -62.2373c-4.07617 -55.2373 -48.498 -119.716 -97.5742 -144.988c-75.1113 -38.6709 -41.3301 109.969 -34.207 139.034c3.6709 14.9844 7.72852 29.8809 12.0889 44.7012
c-8.39062 -3.0918 -16.6318 -6.2793 -24.6279 -9.01465c-5.43652 -1.86621 -12.9463 4.4248 -7.35645 9.37891c15.0264 13.3223 29.915 26.7705 44.7275 40.292c16.2109 48.9805 35.0771 97.1953 53.8896 145.004c12.6357 32.1074 25.5479 64.207 38.9463 96.1074
c-13.249 -21.1035 -26.8467 -41.958 -40.9424 -62.3906c-15.4824 -22.4404 -31.873 -45.0957 -51.75 -63.8965c-13.5215 -12.7891 -32.4297 -28.2832 -51.9854 -29.417c-50.9199 -2.9502 -20.9814 79.8662 -9.95508 101.28c23.7471 46.1152 58.7432 88.8359 98.9766 121.541
c21.2725 17.2871 71.7588 49.915 98.3486 29.1377c5.69727 12.084 11.4717 24.1299 17.4219 36.0801c7.97656 16.0156 35.7617 8.02734 27.7002 -10.2754c-28.4717 -64.6396 -57.9355 -128.751 -84.6133 -194.173c-16.8623 -41.3408 -33.1035 -82.9619 -48.4521 -124.9
c72.4824 68.0195 142.907 138.069 212.812 208.946zM104.869 187.977c19.3906 30.3789 38.4707 60.9873 57.1982 91.7959c-0.352539 0.467773 -0.724609 0.904297 -1.02734 1.43652c-11.1113 19.5176 -59.3525 -18.6816 -69.1494 -26.7578
c-18.123 -14.9424 -34.4102 -32.4561 -49.291 -50.5898c-16.0693 -19.582 -30.6592 -40.7891 -42.2803 -63.3369c-6.33301 -12.2832 -11.9072 -25.249 -14.7197 -38.8311c-1.16113 -5.62109 -2.16895 -11.3916 -1.9043 -17.1426
c0.344727 -7.44434 5.06934 -16.2568 14.3916 -15.7744c10.9697 0.567383 27.9082 17.3223 34.9658 24.1074c8.5752 8.24121 16.3105 17.3447 23.7549 26.6055c17.4941 21.7588 33.0498 44.9736 48.0615 68.4873zM33.5205 -55.2314
c-1.36426 -1.22559 -2.73242 -2.44238 -4.10059 -3.66504c1.10352 0.390625 2.20703 0.777344 3.31445 1.16406c0.256836 0.834961 0.525391 1.66602 0.786133 2.50098zM91.6201 -59.5977c-9.58203 0.858398 -19.2451 -0.115234 -28.8584 -2.13477
c-7.40625 -22.8271 -14.2109 -45.8428 -20.4102 -69.0459c-7.56738 -28.3145 -20.3525 -64.4717 -16.2988 -94.0537c0.874023 -6.37207 2.80469 -18.0615 9.5752 -21.2109c2.94629 -1.37207 11.1074 2.97656 13.7324 4.28711
c5.69336 2.84668 10.8271 7.3252 15.6738 11.3984c10.4902 8.82031 20.0684 18.6367 28.6582 29.3115c17.3564 21.5674 31.6133 47.6367 38.0732 74.6943c7.59375 31.8311 -3.95801 63.5127 -40.1455 66.7539z" />
    <glyph glyph-name="r" unicode="r" horiz-adv-x="239" 
d="M266.793 222.116c7.08398 4.44824 15.1348 -4.75781 7.58691 -9.59668c-19.3145 -12.3984 -38.8701 -24.7393 -60.1953 -33.4443c-15.6777 -6.39844 -37.3291 -14.6592 -54.6201 -11.1689c-16.3564 3.30273 -21.1836 15.7812 -19.1143 30.9688
c1.58984 11.6777 4.05371 23.3516 6.34082 34.9111c1.37891 6.96582 3.40234 13.8818 4.6748 20.8555c1.75879 9.63965 5.58984 15.1221 -6.35254 17.5508c-20.8271 4.24121 -48.3135 -28.7744 -61.6465 -43.1885c-15.3867 -16.6318 -29.0801 -34.7734 -41.4521 -53.7393
c-15.835 -24.2793 -29.6514 -49.751 -42.7012 -75.6133c-14.1992 -42.0957 -26.6592 -84.6475 -40.4297 -127.219c-4.34082 -13.4219 -22.9082 -8.13867 -20.4482 2.25977c-0.0419922 -0.00390625 -0.0800781 -0.0117188 -0.12207 -0.015625
c8.06543 69.3643 31.8398 138.729 57.5107 203.376c26.4023 66.4824 58.6777 131.827 98.0996 191.594c10.0654 15.2607 40.3301 7.5293 29.292 -10.8613c-35.4824 -59.1191 -68.3486 -119.042 -95.1875 -182.62c24.5742 39.0996 53.8076 74.7588 91.6885 100.839
c12.418 8.54785 26.8965 13.8965 41.0654 6.03027c15.3867 -8.54395 12.835 -26.9307 11.4785 -41.9961c-1.1377 -12.6279 -4.06836 -25.3633 -4.52051 -38.0146c-0.609375 -17.2031 5.97266 -20.3564 21.5469 -17.5859c28.3906 5.05371 53.5059 21.6133 77.5059 36.6787z
" />
    <glyph glyph-name="s" unicode="s" horiz-adv-x="282" 
d="M313.495 226.151c7.55176 2.80859 11.5166 -7.5293 4.00684 -10.4258c-54.5977 -21.0615 -103.751 -56.7324 -148.651 -93.7627c-24.7969 -20.4482 -48.3408 -42.6475 -69.915 -66.582c9.08008 -10.1875 17.3096 -21.0303 23.9414 -33.2031
c21.7314 -39.8809 23.3672 -90.7393 0.631836 -130.628c-17.3066 -30.3643 -51.2266 -55.6172 -87.7588 -46.0273c-89.0039 23.3682 -6.5293 144.073 32.6699 193.165c-13.3369 14.1035 -28.1641 27.2607 -42.041 40.9199
c-35.1953 34.6514 -35.7734 74.2988 -15.6934 117.835c19.2949 41.8271 48.3682 80.1143 81.4375 111.991c30.8545 29.7471 67.2334 58.7666 108.03 73.3486c12.0879 4.32227 30.7656 11.1494 41.5469 0.360352c12.0195 -12.0264 2.55176 -33.1182 -3.15723 -45.6465
c-23.7852 -52.2188 -55.3984 -102.299 -83.4404 -152.353c-4.06934 -7.26465 -17.4873 -3.46387 -13.0088 4.82324c16.3828 30.3145 33.1338 60.4336 49.7471 90.625c8 14.54 16.084 29.0342 24.0039 43.6162c5.9043 10.8701 30.6436 57.5332 -1.70898 48.2002
c-51.5781 -14.877 -99.0264 -60.0068 -130.85 -101.581c-15.4902 -20.2373 -28.4102 -42.4941 -39.0117 -65.6553c-10.7207 -23.418 -21.9463 -51.9316 -11.46 -77.3994c9.03418 -21.9463 32.2178 -38.2188 48.6699 -54.292
c3.0498 -2.97656 6.03809 -5.99609 8.98828 -9.04199c27.6709 30.3789 58.5137 57.8574 91.042 82.9189c40.5938 31.2686 83.6934 60.8242 131.98 78.7939zM110.353 -39.8457c-3.48242 27.7812 -16.6689 49.6357 -33.5078 69.1992
c-8.01953 -10.0996 -15.709 -20.4561 -22.9199 -31.1533c-21.4102 -31.7666 -76.8662 -119.088 -16.667 -139.678c57.3867 -19.6279 78.168 61.1533 73.0947 101.632z" />
    <glyph glyph-name="t" unicode="t" horiz-adv-x="198" 
d="M216.425 206.783c3.64746 5.1416 13.6787 0.75293 10.127 -5.32715c-19.9199 -34.1035 -41.9658 -66.6709 -60.6094 -101.571c-19.3682 -36.2529 -37.2305 -73.2832 -56.334 -109.678c-15.0039 -28.5859 -30.1035 -58.1875 -49.4785 -84.1182
c-13.3828 -17.9121 -34.6514 -39.7432 -59.4443 -33.8271c-27.0342 6.45215 -35.9727 36.8086 -39.3057 60.8926c-4.88086 35.2646 -0.804688 71.2305 5.10742 106.107c18.084 106.686 54.4062 210.973 99.2949 310.233
c-8.28711 0.344727 -16.5781 0.942383 -24.8809 1.85449c-8.82715 0.96582 -5.24121 12.9502 2.71289 12.1494c9.30664 -0.938477 18.5752 -1.4668 27.8281 -1.6543c12.498 27.0918 25.5742 53.8193 39.1025 80.084c8.53613 16.5713 38.0498 8.16113 28.9736 -10.7471
c-10.8926 -22.6934 -21.709 -45.4102 -32.2568 -68.2373c6.00781 0.490234 12.0234 1.10352 18.0469 1.88867c9.24902 1.20703 9.50586 -11.6172 0.804688 -12.751c-8.29492 -1.08008 -16.582 -1.82324 -24.873 -2.30566
c-16.498 -36.1875 -32.2227 -72.7158 -46.2607 -110.011c-22.4248 -59.5674 -40.4863 -120.667 -53.6357 -182.946c-6.61328 -31.3145 -12.207 -63.165 -13.0039 -95.2266c-0.368164 -14.7773 -0.410156 -30.1104 1.73535 -44.7695
c1.11523 -7.61719 2.9502 -15.8926 7.95801 -21.9883c10.8389 -13.2031 28.5977 -5.95801 39.0459 4.37891c21.3828 21.1533 35.7354 50.8965 49.9844 77.0264c14.6211 26.8125 28.2686 54.1377 42.1309 81.3447c26.165 51.3486 53.8203 102.122 87.2305 149.198z" />
    <glyph glyph-name="u" unicode="u" horiz-adv-x="290" 
d="M311.601 218.435c4.33691 5.8623 13.8623 -0.105469 9.17285 -6.51562c-35.0615 -47.8623 -62.2188 -100.743 -95.1455 -149.996c-14.4287 -21.582 -29.8965 -42.5361 -47.5176 -61.6357c-11.7129 -12.6973 -29.6211 -31.8848 -48.8398 -23.1875
c-19.835 8.97656 -22.7012 41.4209 -22.6279 60.1025c0.115234 29.7891 7.8584 58.6055 16.6357 86.8389c3.33691 10.7275 6.84668 21.3984 10.4404 32.0381c-3.80078 -6.8125 -7.6709 -13.583 -11.625 -20.3076c-14.1992 -24.1494 -29.1377 -48.5938 -47.1338 -70.1533
c-13.5098 -16.1836 -32.8623 -36.8193 -55.5596 -37.8271c-53.375 -2.36816 -39.1143 78.9531 -31.7998 108.977c14.0459 57.6514 40.1689 111.582 65.832 164.758c6.67773 13.835 31.2256 6.66211 23.793 -8.82422c-21.1455 -44.0381 -42.5557 -88.2949 -56.7666 -135.165
c-6.84668 -22.5713 -12.6934 -45.8965 -13.8311 -69.5439c-0.459961 -9.51758 -0.743164 -19.8623 2.63965 -28.9463c7.59766 -20.4023 29.2607 -12.0537 41.4678 -0.647461c34.1953 31.958 57.9268 77.9238 79.8691 118.725
c17.667 32.8545 33.5518 66.5859 49.5137 100.279c3.88477 9.17578 7.81543 18.3369 11.8232 27.46c6.79688 15.46 33.6934 7.55176 26.1182 -9.68555c-22.0762 -50.249 -42.501 -101.241 -59.8037 -153.345c-8.28711 -24.958 -16.4707 -50.165 -21.1758 -76.0918
c-2.27246 -12.502 -3.46777 -25.2295 -3.17285 -37.9463c0.145508 -6.29883 0.402344 -13.0732 1.36816 -19.3105c1.33301 -8.63184 0.880859 -14.8154 10.5439 -16.1143c16.7969 -2.25684 43.0801 39.1914 52.498 51.8467c14.2832 19.1953 27.1953 39.3682 39.7471 59.7285
c23.8164 38.6396 46.5059 77.9502 73.5361 114.49z" />
    <glyph glyph-name="u" unicode="&#xfc;" horiz-adv-x="290" 
d="M311.601 218.435c4.33691 5.8623 13.8623 -0.105469 9.17285 -6.51562c-35.0615 -47.8623 -62.2188 -100.743 -95.1455 -149.996c-14.4287 -21.582 -29.8965 -42.5361 -47.5176 -61.6357c-11.7129 -12.6973 -29.6211 -31.8848 -48.8398 -23.1875
c-19.835 8.97656 -22.7012 41.4209 -22.6279 60.1025c0.115234 29.7891 7.8584 58.6055 16.6357 86.8389c3.33691 10.7275 6.84668 21.3984 10.4404 32.0381c-3.80078 -6.8125 -7.6709 -13.583 -11.625 -20.3076c-14.1992 -24.1494 -29.1377 -48.5938 -47.1338 -70.1533
c-13.5098 -16.1836 -32.8623 -36.8193 -55.5596 -37.8271c-53.375 -2.36816 -39.1143 78.9531 -31.7998 108.977c14.0459 57.6514 40.1689 111.582 65.832 164.758c6.67773 13.835 31.2256 6.66211 23.793 -8.82422c-21.1455 -44.0381 -42.5557 -88.2949 -56.7666 -135.165
c-6.84668 -22.5713 -12.6934 -45.8965 -13.8311 -69.5439c-0.459961 -9.51758 -0.743164 -19.8623 2.63965 -28.9463c7.59766 -20.4023 29.2607 -12.0537 41.4678 -0.647461c34.1953 31.958 57.9268 77.9238 79.8691 118.725
c17.667 32.8545 33.5518 66.5859 49.5137 100.279c3.88477 9.17578 7.81543 18.3369 11.8232 27.46c6.79688 15.46 33.6934 7.55176 26.1182 -9.68555c-22.0762 -50.249 -42.501 -101.241 -59.8037 -153.345c-8.28711 -24.958 -16.4707 -50.165 -21.1758 -76.0918
c-2.27246 -12.502 -3.46777 -25.2295 -3.17285 -37.9463c0.145508 -6.29883 0.402344 -13.0732 1.36816 -19.3105c1.33301 -8.63184 0.880859 -14.8154 10.5439 -16.1143c16.7969 -2.25684 43.0801 39.1914 52.498 51.8467c14.2832 19.1953 27.1953 39.3682 39.7471 59.7285
c23.8164 38.6396 46.5059 77.9502 73.5361 114.49z" />
    <glyph glyph-name="u" unicode="&#xfb;" horiz-adv-x="290" 
d="M311.601 218.435c4.33691 5.8623 13.8623 -0.105469 9.17285 -6.51562c-35.0615 -47.8623 -62.2188 -100.743 -95.1455 -149.996c-14.4287 -21.582 -29.8965 -42.5361 -47.5176 -61.6357c-11.7129 -12.6973 -29.6211 -31.8848 -48.8398 -23.1875
c-19.835 8.97656 -22.7012 41.4209 -22.6279 60.1025c0.115234 29.7891 7.8584 58.6055 16.6357 86.8389c3.33691 10.7275 6.84668 21.3984 10.4404 32.0381c-3.80078 -6.8125 -7.6709 -13.583 -11.625 -20.3076c-14.1992 -24.1494 -29.1377 -48.5938 -47.1338 -70.1533
c-13.5098 -16.1836 -32.8623 -36.8193 -55.5596 -37.8271c-53.375 -2.36816 -39.1143 78.9531 -31.7998 108.977c14.0459 57.6514 40.1689 111.582 65.832 164.758c6.67773 13.835 31.2256 6.66211 23.793 -8.82422c-21.1455 -44.0381 -42.5557 -88.2949 -56.7666 -135.165
c-6.84668 -22.5713 -12.6934 -45.8965 -13.8311 -69.5439c-0.459961 -9.51758 -0.743164 -19.8623 2.63965 -28.9463c7.59766 -20.4023 29.2607 -12.0537 41.4678 -0.647461c34.1953 31.958 57.9268 77.9238 79.8691 118.725
c17.667 32.8545 33.5518 66.5859 49.5137 100.279c3.88477 9.17578 7.81543 18.3369 11.8232 27.46c6.79688 15.46 33.6934 7.55176 26.1182 -9.68555c-22.0762 -50.249 -42.501 -101.241 -59.8037 -153.345c-8.28711 -24.958 -16.4707 -50.165 -21.1758 -76.0918
c-2.27246 -12.502 -3.46777 -25.2295 -3.17285 -37.9463c0.145508 -6.29883 0.402344 -13.0732 1.36816 -19.3105c1.33301 -8.63184 0.880859 -14.8154 10.5439 -16.1143c16.7969 -2.25684 43.0801 39.1914 52.498 51.8467c14.2832 19.1953 27.1953 39.3682 39.7471 59.7285
c23.8164 38.6396 46.5059 77.9502 73.5361 114.49z" />
    <glyph glyph-name="u" unicode="&#xfa;" horiz-adv-x="290" 
d="M311.601 218.435c4.33691 5.8623 13.8623 -0.105469 9.17285 -6.51562c-35.0615 -47.8623 -62.2188 -100.743 -95.1455 -149.996c-14.4287 -21.582 -29.8965 -42.5361 -47.5176 -61.6357c-11.7129 -12.6973 -29.6211 -31.8848 -48.8398 -23.1875
c-19.835 8.97656 -22.7012 41.4209 -22.6279 60.1025c0.115234 29.7891 7.8584 58.6055 16.6357 86.8389c3.33691 10.7275 6.84668 21.3984 10.4404 32.0381c-3.80078 -6.8125 -7.6709 -13.583 -11.625 -20.3076c-14.1992 -24.1494 -29.1377 -48.5938 -47.1338 -70.1533
c-13.5098 -16.1836 -32.8623 -36.8193 -55.5596 -37.8271c-53.375 -2.36816 -39.1143 78.9531 -31.7998 108.977c14.0459 57.6514 40.1689 111.582 65.832 164.758c6.67773 13.835 31.2256 6.66211 23.793 -8.82422c-21.1455 -44.0381 -42.5557 -88.2949 -56.7666 -135.165
c-6.84668 -22.5713 -12.6934 -45.8965 -13.8311 -69.5439c-0.459961 -9.51758 -0.743164 -19.8623 2.63965 -28.9463c7.59766 -20.4023 29.2607 -12.0537 41.4678 -0.647461c34.1953 31.958 57.9268 77.9238 79.8691 118.725
c17.667 32.8545 33.5518 66.5859 49.5137 100.279c3.88477 9.17578 7.81543 18.3369 11.8232 27.46c6.79688 15.46 33.6934 7.55176 26.1182 -9.68555c-22.0762 -50.249 -42.501 -101.241 -59.8037 -153.345c-8.28711 -24.958 -16.4707 -50.165 -21.1758 -76.0918
c-2.27246 -12.502 -3.46777 -25.2295 -3.17285 -37.9463c0.145508 -6.29883 0.402344 -13.0732 1.36816 -19.3105c1.33301 -8.63184 0.880859 -14.8154 10.5439 -16.1143c16.7969 -2.25684 43.0801 39.1914 52.498 51.8467c14.2832 19.1953 27.1953 39.3682 39.7471 59.7285
c23.8164 38.6396 46.5059 77.9502 73.5361 114.49z" />
    <glyph glyph-name="v" unicode="v" horiz-adv-x="316" 
d="M344.009 218.109c7.79688 2.12988 12.0205 -8.38086 4.07812 -10.6182c-39.4219 -11.1113 -84.6016 -20.1689 -126.422 -14.0957c-16.3564 -37.2725 -34.6631 -73.8662 -55.3447 -108.759c-23.3682 -39.4287 -50.3984 -81.2178 -90.0576 -106.072
c-35.0615 -21.9736 -72.9004 -10.9971 -83.4404 30.5928c-12.7432 50.2949 -1.36035 108.709 7.32129 158.847c9.63574 55.6475 22.3633 110.731 33.2871 166.134c3.34082 16.9424 33.0537 15.4902 29.7051 -3.2373c-16.4365 -91.877 -45.7695 -184.957 -46.0107 -278.945
c-0.0458984 -17.4482 -0.225586 -40.5176 8.85449 -56.0889c14.4365 -24.7471 45.9189 -6.00781 61.6924 7.35254c29.3291 24.8389 50.5244 59.1377 69.6582 92.0303c18.5898 31.9541 36.5137 65.6396 52.1191 100.337c-3.19141 0.712891 -6.36035 1.50977 -9.49414 2.42969
c-42.624 12.4863 -69.1641 49.6094 -66.2178 94.2109c2.67773 40.5859 30.1025 81.2793 64.0645 103.03c27.1416 17.3828 62.835 12.7891 70.9082 -22.1113c5.84668 -25.2725 -2.59375 -53.5293 -9.27148 -77.874c-6.26855 -22.8506 -14.2803 -45.2031 -23.1465 -67.165
c-3.03027 -7.50586 -6.16016 -14.9883 -9.33984 -22.4561c39.7236 -4.92383 85.8271 3.92676 117.057 12.459zM214.753 207.648c14.4365 33.5176 26.5684 67.8838 34.833 102.501c5.08398 21.3066 14.4092 53.1191 0.305664 72.667
c-16.9766 23.5244 -46.9229 2.49023 -61.5977 -11.7969c-26.2031 -25.5176 -45.3984 -60.9082 -39.6133 -98.4365c6.08789 -39.4902 32.8154 -58.0039 66.0723 -64.9346z" />
    </font>
</defs>
</svg>
